<?xml version="1.0" standalone="no"?>
<!DOCTYPE svg PUBLIC "-//W3C//DTD SVG 1.1//EN" "http://www.w3.org/Graphics/SVG/1.1/DTD/svg11.dtd" >
<svg xmlns="http://www.w3.org/2000/svg">
<metadata>Generated by IcoMoon</metadata>
<defs>
<font id="the7-feather" horiz-adv-x="512">
<font-face units-per-em="512" ascent="504.32" descent="-7.68" />
<missing-glyph horiz-adv-x="512" />
<glyph unicode="&#x20;" horiz-adv-x="256" d="" />
<glyph unicode="&#xe900;" glyph-name="activity" d="M469.334 277.333h-85.334c-9.365 0-17.322-6.037-20.245-14.592l-43.755-131.286-107.755 323.286c-3.733 11.178-15.808 17.216-26.987 13.504-6.613-2.198-11.413-7.318-13.504-13.504l-59.136-177.408h-69.952c-11.776 0-21.334-9.558-21.334-21.333s9.557-21.334 21.334-21.334h85.333c9.024 0.064 17.28 5.696 20.245 14.592l43.755 131.286 107.755-323.286c2.091-6.187 6.89-11.286 13.483-13.483 11.178-3.733 23.253 2.325 26.986 13.483l59.157 177.408h69.952c11.776 0 21.334 9.558 21.334 21.334s-9.558 21.334-21.334 21.334z" />
<glyph unicode="&#xe901;" glyph-name="airplay" d="M106.666 170.666h-21.334c-5.888 0-11.2 2.368-15.082 6.25s-6.251 9.195-6.251 15.082v213.334c0 5.888 2.368 11.2 6.251 15.082s9.195 6.25 15.082 6.25h341.334c5.888 0 11.2-2.368 15.082-6.25s6.25-9.195 6.25-15.082v-213.334c0-5.888-2.368-11.2-6.25-15.082s-9.195-6.25-15.082-6.25h-21.334c-11.776 0-21.334-9.558-21.334-21.334s9.558-21.334 21.334-21.334h21.334c17.664 0 33.707 7.19 45.248 18.752s18.752 27.584 18.752 45.248v213.334c0 17.664-7.19 33.707-18.752 45.248s-27.584 18.752-45.248 18.752h-341.334c-17.664 0-33.706-7.19-45.248-18.752s-18.752-27.584-18.752-45.248v-213.334c0-17.664 7.189-33.707 18.752-45.248s27.584-18.752 45.248-18.752h21.334c11.776 0 21.334 9.558 21.334 21.334s-9.558 21.334-21.334 21.334zM272.384 205.654c-0.747 0.918-1.685 1.856-2.731 2.731-9.046 7.552-22.506 6.315-30.037-2.731l-106.667-128c-3.072-3.67-4.95-8.448-4.95-13.654 0-11.776 9.558-21.334 21.334-21.334h213.334c4.8-0.022 9.664 1.6 13.654 4.95 9.046 7.552 10.283 20.992 2.731 30.038zM256 158.678l61.12-73.344h-122.24z" />
<glyph unicode="&#xe902;" glyph-name="alert-circle" d="M490.666 256c0 64.789-26.282 123.499-68.736 165.93s-101.142 68.736-165.93 68.736-123.499-26.282-165.93-68.736-68.736-101.142-68.736-165.93 26.282-123.499 68.736-165.93 101.142-68.736 165.93-68.736 123.499 26.282 165.93 68.736 68.736 101.142 68.736 165.93zM448 256c0-53.034-21.462-100.992-56.235-135.765s-82.731-56.235-135.766-56.235-100.992 21.462-135.766 56.235-56.234 82.731-56.234 135.765 21.462 100.992 56.234 135.766 82.731 56.234 135.766 56.234 100.992-21.462 135.766-56.234 56.235-82.731 56.235-135.766zM234.667 341.333v-85.333c0-11.776 9.558-21.334 21.333-21.334s21.334 9.558 21.334 21.334v85.334c0 11.776-9.558 21.334-21.334 21.334s-21.334-9.558-21.334-21.334zM256 149.334c11.776 0 21.334 9.558 21.334 21.334s-9.558 21.334-21.334 21.334-21.334-9.558-21.334-21.334 9.558-21.334 21.334-21.334z" />
<glyph unicode="&#xe903;" glyph-name="alert-octagon" d="M167.68 490.666c-5.462 0-10.923-2.090-15.083-6.25l-125.013-125.013c-3.861-3.862-6.25-9.195-6.25-15.083v-176.64c0-5.462 2.090-10.923 6.25-15.082l125.013-125.013c3.862-3.861 9.195-6.25 15.083-6.25h176.64c5.462 0 10.923 2.091 15.082 6.25l125.013 125.014c3.861 3.861 6.25 9.195 6.25 15.082v176.64c0 5.462-2.091 10.923-6.25 15.082l-125.014 125.014c-3.861 3.861-9.195 6.25-15.082 6.25zM176.512 448h158.976l112.512-112.512v-158.976l-112.512-112.512h-158.976l-112.512 112.512v158.976zM234.667 341.333v-85.333c0-11.776 9.558-21.334 21.333-21.334s21.334 9.558 21.334 21.334v85.334c0 11.776-9.558 21.334-21.334 21.334s-21.334-9.558-21.334-21.334zM256 149.334c11.776 0 21.334 9.558 21.334 21.334s-9.558 21.334-21.334 21.334-21.334-9.558-21.334-21.334 9.558-21.334 21.334-21.334z" />
<glyph unicode="&#xe904;" glyph-name="alert-triangle" d="M237.824 418.688c1.558 2.624 3.946 5.163 7.125 7.082 5.035 3.051 10.794 3.798 16.128 2.475s10.112-4.608 13.099-9.558l180.608-301.504c1.493-2.56 2.538-5.717 2.731-9.259-0.32-7.851-2.538-12.608-6.038-16.192-3.84-3.925-9.11-6.358-14.784-6.421l-361.322 0.022c-3.243 0.022-6.848 0.875-10.261 2.858-5.099 2.944-8.512 7.659-9.941 12.95s-0.81 11.072 1.962 15.894zM201.216 440.618l-180.694-301.654c-9.002-15.594-10.794-33.067-6.57-48.853s14.506-30.038 29.824-38.87c9.898-5.717 20.822-8.534 31.466-8.576h361.45c17.899 0.192 33.856 7.552 45.291 19.243s18.432 27.798 18.24 45.462c-0.128 11.435-3.264 22.272-8.661 31.445l-180.779 301.803c-9.216 15.21-23.68 25.195-39.552 29.077s-33.302 1.728-48.406-7.445c-9.152-5.547-16.534-13.12-21.589-21.632zM234.667 320v-85.334c0-11.776 9.558-21.334 21.333-21.334s21.334 9.558 21.334 21.334v85.334c0 11.776-9.558 21.334-21.334 21.334s-21.334-9.558-21.334-21.334zM256 128c11.776 0 21.334 9.558 21.334 21.334s-9.558 21.334-21.334 21.334-21.334-9.558-21.334-21.334 9.558-21.334 21.334-21.334z" />
<glyph unicode="&#xe905;" glyph-name="align-center" d="M384 320h-256c-11.776 0-21.334-9.558-21.334-21.334s9.558-21.334 21.334-21.334h256c11.776 0 21.334 9.558 21.334 21.334s-9.558 21.334-21.334 21.334zM448 405.333h-384c-11.776 0-21.334-9.558-21.334-21.333s9.557-21.334 21.334-21.334h384c11.776 0 21.334 9.558 21.334 21.334s-9.558 21.333-21.334 21.333zM448 234.666h-384c-11.776 0-21.334-9.558-21.334-21.334s9.557-21.334 21.334-21.334h384c11.776 0 21.334 9.558 21.334 21.334s-9.558 21.334-21.334 21.334zM384 149.334h-256c-11.776 0-21.334-9.558-21.334-21.334s9.558-21.334 21.334-21.334h256c11.776 0 21.334 9.558 21.334 21.334s-9.558 21.334-21.334 21.334z" />
<glyph unicode="&#xe906;" glyph-name="align-justify" d="M448 320h-384c-11.776 0-21.334-9.558-21.334-21.334s9.557-21.334 21.334-21.334h384c11.776 0 21.334 9.558 21.334 21.334s-9.558 21.334-21.334 21.334zM448 405.333h-384c-11.776 0-21.334-9.558-21.334-21.333s9.557-21.334 21.334-21.334h384c11.776 0 21.334 9.558 21.334 21.334s-9.558 21.333-21.334 21.333zM448 234.666h-384c-11.776 0-21.334-9.558-21.334-21.334s9.557-21.334 21.334-21.334h384c11.776 0 21.334 9.558 21.334 21.334s-9.558 21.334-21.334 21.334zM448 149.334h-384c-11.776 0-21.334-9.558-21.334-21.334s9.557-21.334 21.334-21.334h384c11.776 0 21.334 9.558 21.334 21.334s-9.558 21.334-21.334 21.334z" />
<glyph unicode="&#xe907;" glyph-name="align-left" d="M362.666 320h-298.666c-11.776 0-21.334-9.558-21.334-21.334s9.557-21.334 21.334-21.334h298.666c11.776 0 21.334 9.558 21.334 21.334s-9.558 21.334-21.334 21.334zM448 405.333h-384c-11.776 0-21.334-9.558-21.334-21.333s9.557-21.334 21.334-21.334h384c11.776 0 21.334 9.558 21.334 21.334s-9.558 21.333-21.334 21.333zM448 234.666h-384c-11.776 0-21.334-9.558-21.334-21.334s9.557-21.334 21.334-21.334h384c11.776 0 21.334 9.558 21.334 21.334s-9.558 21.334-21.334 21.334zM362.666 149.334h-298.666c-11.776 0-21.334-9.558-21.334-21.334s9.557-21.334 21.334-21.334h298.666c11.776 0 21.334 9.558 21.334 21.334s-9.558 21.334-21.334 21.334z" />
<glyph unicode="&#xe908;" glyph-name="align-right" d="M448 320h-298.666c-11.776 0-21.334-9.558-21.334-21.334s9.558-21.334 21.334-21.334h298.666c11.776 0 21.334 9.558 21.334 21.334s-9.558 21.334-21.334 21.334zM448 405.333h-384c-11.776 0-21.334-9.558-21.334-21.333s9.557-21.334 21.334-21.334h384c11.776 0 21.334 9.558 21.334 21.334s-9.558 21.333-21.334 21.333zM448 234.666h-384c-11.776 0-21.334-9.558-21.334-21.334s9.557-21.334 21.334-21.334h384c11.776 0 21.334 9.558 21.334 21.334s-9.558 21.334-21.334 21.334zM448 149.334h-298.666c-11.776 0-21.334-9.558-21.334-21.334s9.558-21.334 21.334-21.334h298.666c11.776 0 21.334 9.558 21.334 21.334s-9.558 21.334-21.334 21.334z" />
<glyph unicode="&#xe909;" glyph-name="anchor" d="M298.666 405.333c0-11.797-4.757-22.421-12.502-30.165s-18.368-12.501-30.166-12.501-22.422 4.757-30.166 12.501-12.501 18.368-12.501 30.166 4.757 22.421 12.501 30.166 18.368 12.501 30.166 12.501 22.421-4.757 30.166-12.501 12.502-18.368 12.502-30.166zM106.666 277.333h-64c-11.776 0-21.334-9.558-21.334-21.333 0-64.789 26.282-123.499 68.736-165.93s101.141-68.736 165.93-68.736 123.499 26.282 165.93 68.736 68.736 101.142 68.736 165.93c0 11.776-9.558 21.334-21.334 21.334h-64c-11.776 0-21.334-9.558-21.334-21.334s9.558-21.334 21.334-21.334h41.493c-4.906-44.502-25.024-84.394-55.062-114.432s-69.93-50.154-114.432-55.062v257.514c14.998 3.862 28.416 11.712 38.998 22.293 15.424 15.424 25.002 36.8 25.002 60.352s-9.579 44.928-25.002 60.33-36.779 25.002-60.331 25.002-44.928-9.579-60.331-25.002-25.002-36.779-25.002-60.33 9.578-44.928 25.002-60.331c10.582-10.602 24-18.453 38.998-22.315v-257.514c-44.501 4.906-84.394 25.024-114.432 55.062s-50.154 69.93-55.062 114.432h41.493c11.776 0 21.334 9.558 21.334 21.334s-9.558 21.334-21.334 21.334z" />
<glyph unicode="&#xe90a;" glyph-name="aperture" d="M243.669 362.667l47.424 82.133c38.933-7.19 73.75-26.133 100.672-53.035 8.875-8.875 16.896-18.624 23.914-29.098h-110.805zM157.44 298.667l-47.403 82.069c3.264 3.819 6.656 7.488 10.198 11.029 32 32 75.2 52.736 123.2 55.83l-55.296-95.786zM169.77 192h-94.848c-7.082 20.010-10.922 41.558-10.922 64 0 30.506 7.104 59.328 19.755 84.95l55.466-96.085zM372.757 267.136l-30.528 52.864h94.848c7.082-20.010 10.923-41.558 10.923-64 0-30.507-7.104-59.328-19.755-84.95l-54.954 95.19zM268.544 64.406l86.016 148.928 47.402-82.091c-3.264-3.798-6.656-7.488-10.197-11.008-32-32-75.2-52.736-123.2-55.829zM228.267 22.954c0.982-0.171 1.963-0.298 2.965-0.32 8.128-0.853 16.405-1.301 24.768-1.301 64.789 0 123.499 26.282 165.93 68.736 7.808 7.808 15.062 16.149 21.696 24.981 0.896 1.002 1.685 2.070 2.346 3.178 28.118 38.678 44.694 86.315 44.694 137.771 0 32.832-6.762 64.106-18.944 92.501-0.341 0.939-0.726 1.835-1.173 2.688-11.798 26.538-28.373 50.496-48.618 70.742-36.288 36.288-84.48 60.779-138.197 67.115-0.981 0.171-1.962 0.298-2.966 0.32-8.128 0.853-16.406 1.301-24.768 1.301-64.79 0-123.499-26.282-165.93-68.736-7.808-7.786-15.061-16.15-21.696-24.982-0.896-1.002-1.686-2.069-2.368-3.178-28.096-38.678-44.672-86.314-44.672-137.77 0-32.832 6.762-64.106 18.944-92.501 0.342-0.938 0.725-1.834 1.173-2.688 11.797-26.538 28.373-50.496 48.618-70.741 36.288-36.288 84.48-60.779 138.197-67.115zM268.33 149.334l-47.424-82.133c-38.934 7.19-73.749 26.134-100.672 53.034-8.874 8.875-16.896 18.624-23.915 29.099h110.805zM329.92 256l-36.95-64h-73.942l-36.95 64 36.95 64h73.942z" />
<glyph unicode="&#xe90b;" glyph-name="archive" d="M85.334 320h341.334v-234.667h-341.334zM21.334 469.334c-11.776 0-21.334-9.558-21.334-21.334v-106.666c0-11.776 9.557-21.334 21.334-21.334h21.334v-256c0-11.776 9.557-21.334 21.334-21.334h384c11.776 0 21.334 9.558 21.334 21.334v256h21.334c11.776 0 21.333 9.558 21.333 21.334v106.666c0 11.776-9.558 21.334-21.334 21.334zM42.666 426.666h426.666v-64h-426.666zM213.333 234.666h85.333c11.776 0 21.334 9.558 21.334 21.334s-9.558 21.334-21.334 21.334h-85.334c-11.776 0-21.334-9.558-21.334-21.334s9.558-21.334 21.334-21.334z" />
<glyph unicode="&#xe90c;" glyph-name="arrow-down" d="M390.25 271.082l-112.918-112.917v247.168c0 11.776-9.558 21.334-21.334 21.334s-21.334-9.558-21.334-21.334v-247.168l-112.918 112.918c-8.341 8.341-21.846 8.341-30.165 0s-8.341-21.846 0-30.166l149.333-149.333c1.963-1.962 4.31-3.541 6.912-4.63 5.226-2.154 11.114-2.154 16.342 0 2.517 1.046 4.864 2.582 6.912 4.63l149.334 149.333c8.341 8.341 8.341 21.846 0 30.166s-21.846 8.341-30.166 0z" />
<glyph unicode="&#xe90d;" glyph-name="arrow-down-circle" d="M490.666 256c0 64.789-26.282 123.499-68.736 165.93s-101.142 68.736-165.93 68.736-123.499-26.282-165.93-68.736-68.736-101.142-68.736-165.93 26.282-123.499 68.736-165.93 101.142-68.736 165.93-68.736 123.499 26.282 165.93 68.736 68.736 101.142 68.736 165.93zM448 256c0-53.034-21.462-100.992-56.235-135.765s-82.731-56.235-135.766-56.235-100.992 21.462-135.766 56.235-56.234 82.731-56.234 135.765 21.462 100.992 56.234 135.766 82.731 56.234 135.766 56.234 100.992-21.462 135.766-56.234 56.235-82.731 56.235-135.766zM234.667 341.333v-119.168l-48.917 48.918c-8.341 8.341-21.846 8.341-30.166 0s-8.341-21.846 0-30.166l85.334-85.334c1.963-1.962 4.31-3.541 6.912-4.63 5.226-2.154 11.114-2.154 16.342 0 2.517 1.046 4.864 2.582 6.912 4.63l85.334 85.334c8.341 8.341 8.341 21.846 0 30.166s-21.846 8.341-30.166 0l-48.918-48.918v119.168c0 11.776-9.558 21.334-21.334 21.334s-21.334-9.558-21.334-21.334z" />
<glyph unicode="&#xe90e;" glyph-name="arrow-down-left" d="M362.666 170.666h-161.834l176.918 176.917c8.341 8.341 8.341 21.846 0 30.166s-21.846 8.341-30.166 0l-176.917-176.918v161.834c0 11.776-9.558 21.334-21.333 21.334s-21.334-9.558-21.334-21.334v-213.334c0-11.776 9.557-21.334 21.334-21.334h213.334c11.776 0 21.334 9.558 21.334 21.334s-9.558 21.334-21.334 21.334z" />
<glyph unicode="&#xe90f;" glyph-name="arrow-down-right" d="M341.334 362.667v-161.835l-176.917 176.918c-8.341 8.341-21.845 8.341-30.166 0s-8.341-21.846 0-30.166l176.917-176.917h-161.834c-11.776 0-21.334-9.558-21.334-21.334s9.558-21.334 21.334-21.334h213.334c2.901 0 5.654 0.576 8.171 1.622s4.864 2.582 6.912 4.63c1.962 1.962 3.541 4.31 4.63 6.912 1.046 2.517 1.622 5.269 1.622 8.171v213.333c0 11.776-9.558 21.334-21.334 21.334s-21.334-9.558-21.334-21.334z" />
<glyph unicode="&#xe910;" glyph-name="arrow-left" d="M271.082 121.75l-112.918 112.918h247.168c11.776 0 21.334 9.558 21.334 21.334s-9.558 21.334-21.334 21.334h-247.168l112.918 112.918c8.341 8.341 8.341 21.846 0 30.165s-21.846 8.341-30.166 0l-149.333-149.333c-2.048-2.048-3.584-4.394-4.63-6.912-1.088-2.602-1.621-5.397-1.621-8.17 0-5.462 2.091-10.923 6.251-15.083l149.334-149.334c8.341-8.341 21.846-8.341 30.166 0s8.341 21.846 0 30.166z" />
<glyph unicode="&#xe911;" glyph-name="arrow-left-circle" d="M490.666 256c0 64.789-26.282 123.499-68.736 165.93s-101.142 68.736-165.93 68.736-123.499-26.282-165.93-68.736-68.736-101.142-68.736-165.93 26.282-123.499 68.736-165.93 101.142-68.736 165.93-68.736 123.499 26.282 165.93 68.736 68.736 101.142 68.736 165.93zM448 256c0-53.034-21.462-100.992-56.235-135.765s-82.731-56.235-135.766-56.235-100.992 21.462-135.766 56.235-56.234 82.731-56.234 135.765 21.462 100.992 56.234 135.766 82.731 56.234 135.766 56.234 100.992-21.462 135.766-56.234 56.235-82.731 56.235-135.766zM341.334 277.333h-119.168l48.918 48.918c8.341 8.341 8.341 21.846 0 30.166s-21.846 8.341-30.166 0l-85.334-85.334c-2.048-2.048-3.584-4.394-4.63-6.912-1.088-2.602-1.621-5.397-1.621-8.17 0-5.462 2.090-10.923 6.25-15.083l85.333-85.334c8.341-8.341 21.846-8.341 30.166 0s8.341 21.846 0 30.166l-48.917 48.918h119.168c11.776 0 21.334 9.558 21.334 21.334s-9.558 21.334-21.334 21.334z" />
<glyph unicode="&#xe912;" glyph-name="arrow-right" d="M240.917 390.25l112.917-112.918h-247.168c-11.776 0-21.334-9.558-21.334-21.333s9.558-21.334 21.334-21.334h247.168l-112.918-112.918c-8.341-8.341-8.341-21.846 0-30.166s21.846-8.341 30.166 0l149.333 149.333c1.962 1.962 3.541 4.31 4.63 6.912 2.154 5.226 2.154 11.114 0 16.341-1.046 2.517-2.582 4.864-4.63 6.912l-149.333 149.334c-8.341 8.341-21.846 8.341-30.166 0s-8.341-21.846 0-30.166z" />
<glyph unicode="&#xe913;" glyph-name="arrow-right-circle" d="M490.666 256c0 64.789-26.282 123.499-68.736 165.93s-101.142 68.736-165.93 68.736-123.499-26.282-165.93-68.736-68.736-101.142-68.736-165.93 26.282-123.499 68.736-165.93 101.142-68.736 165.93-68.736 123.499 26.282 165.93 68.736 68.736 101.142 68.736 165.93zM448 256c0-53.034-21.462-100.992-56.235-135.765s-82.731-56.235-135.766-56.235-100.992 21.462-135.766 56.235-56.234 82.731-56.234 135.765 21.462 100.992 56.234 135.766 82.731 56.234 135.766 56.234 100.992-21.462 135.766-56.234 56.235-82.731 56.235-135.766zM170.667 234.666h119.168l-48.917-48.918c-8.341-8.341-8.341-21.846 0-30.166s21.845-8.341 30.165 0l85.334 85.334c1.962 1.962 3.541 4.31 4.63 6.912 2.154 5.226 2.154 11.115 0 16.341-1.046 2.518-2.582 4.864-4.63 6.912l-85.334 85.333c-8.341 8.341-21.846 8.341-30.166 0s-8.341-21.846 0-30.166l48.918-48.917h-119.168c-11.776 0-21.334-9.558-21.334-21.334s9.558-21.334 21.334-21.334z" />
<glyph unicode="&#xe914;" glyph-name="arrow-up" d="M121.749 240.918l112.918 112.918v-247.168c0-11.776 9.558-21.334 21.333-21.334s21.334 9.558 21.334 21.334v247.168l112.918-112.918c8.341-8.341 21.846-8.341 30.166 0s8.341 21.846 0 30.166l-149.333 149.334c-1.962 1.962-4.31 3.541-6.912 4.63s-5.397 1.621-8.171 1.621c-5.462 0-10.923-2.091-15.083-6.25l-149.333-149.334c-8.341-8.341-8.341-21.846 0-30.166s21.846-8.341 30.166 0z" />
<glyph unicode="&#xe915;" glyph-name="arrow-up-circle" d="M490.666 256c0 64.789-26.282 123.499-68.736 165.93s-101.142 68.736-165.93 68.736-123.499-26.282-165.93-68.736-68.736-101.142-68.736-165.93 26.282-123.499 68.736-165.93 101.142-68.736 165.93-68.736 123.499 26.282 165.93 68.736 68.736 101.142 68.736 165.93zM448 256c0-53.034-21.462-100.992-56.235-135.765s-82.731-56.235-135.766-56.235-100.992 21.462-135.766 56.235-56.234 82.731-56.234 135.765 21.462 100.992 56.234 135.766 82.731 56.234 135.766 56.234 100.992-21.462 135.766-56.234 56.235-82.731 56.235-135.766zM277.334 170.666v119.168l48.918-48.918c8.341-8.341 21.846-8.341 30.166 0s8.341 21.846 0 30.166l-85.334 85.334c-2.048 2.048-4.394 3.584-6.912 4.63-2.603 1.088-5.397 1.622-8.171 1.622-5.462 0-10.923-2.091-15.083-6.25l-85.333-85.334c-8.341-8.341-8.341-21.846 0-30.166s21.846-8.341 30.166 0l48.917 48.918v-119.168c0-11.776 9.558-21.334 21.333-21.334s21.334 9.558 21.334 21.334z" />
<glyph unicode="&#xe916;" glyph-name="arrow-up-left" d="M170.667 149.334v161.834l176.917-176.918c8.341-8.341 21.846-8.341 30.166 0s8.341 21.846 0 30.166l-176.917 176.917h161.835c11.776 0 21.334 9.558 21.334 21.334s-9.558 21.334-21.334 21.334h-213.333c-11.776 0-21.334-9.558-21.334-21.334v-213.334c0-11.776 9.557-21.334 21.334-21.334s21.333 9.558 21.333 21.334z" />
<glyph unicode="&#xe917;" glyph-name="arrow-up-right" d="M149.333 341.333h161.835l-176.917-176.917c-8.341-8.341-8.341-21.846 0-30.166s21.845-8.341 30.166 0l176.917 176.918v-161.835c0-11.776 9.558-21.334 21.334-21.334s21.334 9.558 21.334 21.334v213.333c0 2.902-0.576 5.654-1.622 8.171s-2.582 4.864-4.608 6.89c-0.022 0.022-0.022 0.022-0.043 0.043-1.962 1.962-4.31 3.541-6.89 4.608-2.517 1.046-5.269 1.622-8.171 1.622h-213.333c-11.776 0-21.333-9.558-21.333-21.334s9.558-21.334 21.334-21.334z" />
<glyph unicode="&#xe918;" glyph-name="at-sign" d="M320 256c0-17.685-7.147-33.642-18.752-45.248s-27.563-18.752-45.248-18.752-33.642 7.147-45.248 18.752-18.752 27.563-18.752 45.248 7.147 33.642 18.752 45.248 27.563 18.752 45.248 18.752 33.642-7.147 45.248-18.752 18.752-27.563 18.752-45.248zM335.786 185.216c2.774-3.882 5.846-7.531 9.195-10.88 15.424-15.424 36.8-25.002 60.352-25.002s44.928 9.579 60.331 25.002 25.002 36.779 25.002 60.331v21.334c0 64.79-26.304 123.498-68.736 165.93s-101.142 68.736-165.952 68.714-123.478-26.282-165.93-68.736-68.715-101.142-68.715-165.93 26.304-123.499 68.736-165.93 101.142-68.736 165.93-68.714c53.866 0 103.573 18.176 142.72 48.406 9.322 7.19 11.050 20.587 3.84 29.93s-20.587 11.050-29.93 3.84c-31.723-24.49-72.043-39.339-115.947-39.51-54.186 0.192-101.888 21.632-136.49 56.234-34.709 34.752-56.192 82.709-56.192 135.744s21.462 100.992 56.234 135.765 82.731 56.235 135.766 56.235 100.992-21.462 135.765-56.235 56.235-82.731 56.235-135.744v-21.334c0-11.798-4.757-22.421-12.502-30.166s-18.368-12.502-30.166-12.502-22.421 4.757-30.166 12.502-12.502 18.368-12.502 30.166v106.666c0 11.776-9.558 21.334-21.334 21.334s-21.334-9.558-21.334-21.334c-17.813 13.376-40 21.334-64 21.334-29.44 0-56.149-11.968-75.435-31.232s-31.232-45.995-31.232-75.435 11.968-56.149 31.232-75.435 45.995-31.232 75.435-31.232 56.149 11.968 75.435 31.232c1.493 1.493 2.966 3.050 4.373 4.63z" />
<glyph unicode="&#xe919;" glyph-name="award" d="M319.702 182.954l16-120.576-68.714 41.238c-6.635 3.925-14.998 4.181-21.952 0l-68.714-41.238 16.022 120.555c19.648-7.914 41.152-12.267 63.659-12.267s44.010 4.373 63.702 12.288zM327.082 234.858c-1.238-0.64-2.411-1.387-3.478-2.24-19.627-12.224-42.774-19.286-67.606-19.286-35.35 0-67.328 14.293-90.517 37.483s-37.483 55.168-37.483 90.517 14.294 67.328 37.483 90.517 55.168 37.483 90.517 37.483 67.328-14.293 90.517-37.483 37.483-55.168 37.483-90.517-14.293-67.328-37.483-90.517c-5.93-5.93-12.438-11.286-19.435-15.957zM152.32 205.76l-24.128-181.611c-1.558-11.669 6.656-22.4 18.346-23.957 4.992-0.662 9.834 0.469 13.781 2.858l95.68 57.408 95.702-57.408c10.112-6.059 23.211-2.795 29.269 7.317 2.603 4.33 3.478 9.195 2.858 13.781l-24.106 181.654c5.974 4.587 11.648 9.558 16.96 14.87 30.848 30.848 49.984 73.536 49.984 120.661s-19.136 89.814-49.984 120.683-73.558 49.984-120.683 49.984-89.814-19.136-120.683-49.984-49.984-73.558-49.984-120.683 19.136-89.814 49.984-120.683c5.333-5.334 11.008-10.304 16.982-14.89z" />
<glyph unicode="&#xe91a;" glyph-name="bar-chart" d="M277.334 85.334v213.334c0 11.776-9.558 21.333-21.334 21.333s-21.334-9.558-21.334-21.334v-213.334c0-11.776 9.558-21.334 21.334-21.334s21.334 9.558 21.334 21.334zM405.334 85.334v341.334c0 11.776-9.558 21.334-21.334 21.334s-21.334-9.558-21.334-21.334v-341.334c0-11.776 9.558-21.334 21.334-21.334s21.334 9.558 21.334 21.334zM149.333 85.334v85.334c0 11.776-9.558 21.334-21.334 21.334s-21.334-9.558-21.334-21.334v-85.334c0-11.776 9.558-21.334 21.334-21.334s21.334 9.558 21.334 21.334z" />
<glyph unicode="&#xe91b;" glyph-name="bar-chart-2" d="M405.334 85.334v213.334c0 11.776-9.558 21.333-21.334 21.333s-21.334-9.558-21.334-21.334v-213.334c0-11.776 9.558-21.334 21.334-21.334s21.334 9.558 21.334 21.334zM277.334 85.334v341.334c0 11.776-9.558 21.334-21.334 21.334s-21.334-9.558-21.334-21.334v-341.334c0-11.776 9.558-21.334 21.334-21.334s21.334 9.558 21.334 21.334zM149.333 85.334v128c0 11.776-9.558 21.334-21.334 21.334s-21.334-9.558-21.334-21.334v-128c0-11.776 9.558-21.334 21.334-21.334s21.334 9.558 21.334 21.334z" />
<glyph unicode="&#xe91c;" glyph-name="battery" d="M64 405.333c-17.664 0-33.706-7.189-45.248-18.752s-18.752-27.584-18.752-45.248v-170.666c0-17.664 7.189-33.707 18.752-45.248s27.584-18.752 45.248-18.752h298.666c17.664 0 33.707 7.19 45.248 18.752s18.752 27.584 18.752 45.248v170.667c0 17.664-7.19 33.707-18.752 45.248s-27.584 18.752-45.248 18.752zM64 362.667h298.666c5.888 0 11.2-2.368 15.082-6.25s6.25-9.195 6.25-15.083v-170.666c0-5.888-2.368-11.2-6.25-15.082s-9.195-6.25-15.082-6.25h-298.666c-5.888 0-11.2 2.368-15.082 6.25s-6.251 9.195-6.251 15.082v170.667c0 5.888 2.368 11.2 6.251 15.082s9.194 6.25 15.082 6.25zM512 234.666v42.666c0 11.776-9.558 21.334-21.334 21.334s-21.334-9.558-21.334-21.334v-42.666c0-11.776 9.558-21.334 21.334-21.334s21.334 9.558 21.334 21.334z" />
<glyph unicode="&#xe91d;" glyph-name="battery-charging" d="M106.666 149.334h-42.666c-5.888 0-11.2 2.368-15.082 6.25s-6.251 9.195-6.251 15.082v170.666c0 5.888 2.368 11.2 6.251 15.083s9.194 6.25 15.082 6.25h68.053c11.776 0 21.334 9.558 21.334 21.334s-9.558 21.333-21.334 21.333h-68.053c-17.664 0-33.706-7.189-45.248-18.752s-18.752-27.584-18.752-45.248v-170.666c0-17.664 7.189-33.707 18.752-45.248s27.584-18.752 45.248-18.752h42.666c11.776 0 21.334 9.558 21.334 21.334s-9.558 21.334-21.334 21.334zM320 362.667h42.666c5.888 0 11.2-2.368 15.082-6.25s6.25-9.195 6.25-15.083v-170.666c0-5.888-2.368-11.2-6.25-15.082s-9.195-6.25-15.082-6.25h-68.053c-11.776 0-21.334-9.558-21.334-21.334s9.558-21.334 21.334-21.334h68.053c17.664 0 33.707 7.19 45.248 18.752s18.752 27.584 18.752 45.248v170.667c0 17.664-7.19 33.707-18.752 45.248s-27.584 18.752-45.248 18.752h-42.666c-11.776 0-21.334-9.558-21.334-21.334s9.558-21.333 21.334-21.333zM512 234.666v42.666c0 11.776-9.558 21.334-21.334 21.334s-21.334-9.558-21.334-21.334v-42.666c0-11.776 9.558-21.334 21.334-21.334s21.334 9.558 21.334 21.334zM216.917 395.84l-85.333-128c-6.528-9.814-3.882-23.040 5.91-29.59 3.669-2.454 7.829-3.606 11.84-3.584h88.128l-63.232-94.827c-6.528-9.813-3.882-23.040 5.91-29.589s23.040-3.882 29.589 5.909l85.334 128c2.262 3.328 3.606 7.424 3.606 11.84 0 11.776-9.558 21.334-21.334 21.334h-88.128l63.232 94.827c6.528 9.813 3.883 23.040-5.91 29.589s-23.040 3.882-29.589-5.909z" />
<glyph unicode="&#xe91e;" glyph-name="bell" d="M362.666 341.333c0-85.568 20.202-139.093 39.488-170.666h-292.31c19.286 31.574 39.488 85.099 39.488 170.666 0 29.462 11.925 56.106 31.232 75.435s45.974 31.232 75.434 31.232 56.106-11.926 75.435-31.232 31.232-45.974 31.232-75.435zM405.334 341.333c0 41.238-16.747 78.592-43.733 105.6s-64.363 43.733-105.6 43.733-78.592-16.747-105.6-43.733-43.733-64.363-43.733-105.6c0-130.709-51.050-171.669-54.678-174.378-9.664-6.57-12.224-19.712-5.739-29.462 4.096-6.123 10.794-9.45 17.75-9.493h384c11.776 0 21.334 9.558 21.334 21.334 0 7.232-3.584 13.611-9.152 17.514-3.755 2.774-54.848 43.733-54.848 174.486zM274.454 74.709c-2.966-5.099-7.659-8.512-12.971-9.92s-11.094-0.789-16.192 2.154c-3.456 2.005-6.037 4.736-7.659 7.616-5.845 10.24-18.858 13.803-29.099 7.957s-13.803-18.858-7.958-29.099c5.333-9.365 13.291-17.558 23.317-23.382 15.274-8.875 32.746-10.688 48.554-6.486s30.058 14.464 38.912 29.738c5.909 10.197 2.432 23.253-7.744 29.163s-23.253 2.432-29.163-7.744z" />
<glyph unicode="&#xe91f;" glyph-name="bell-off" d="M274.454 74.709c-2.966-5.099-7.659-8.512-12.971-9.92s-11.094-0.789-16.192 2.154c-3.456 2.005-6.037 4.736-7.659 7.616-5.845 10.24-18.858 13.803-29.099 7.957s-13.803-18.858-7.958-29.099c5.333-9.365 13.291-17.558 23.317-23.382 15.274-8.875 32.746-10.688 48.554-6.486s30.058 14.464 38.912 29.738c5.909 10.197 2.432 23.253-7.744 29.163s-23.253 2.432-29.163-7.744zM405.334 341.824c-0.086 41.024-16.726 78.208-43.584 105.13-26.966 27.050-64.298 43.84-105.536 43.904-30.891 0.043-59.712-9.322-83.2-25.173-9.75-6.592-12.331-19.861-5.738-29.632s19.862-12.331 29.632-5.738c16.298 11.008 36.438 17.685 58.24 17.856 30.89-0.235 57.259-12.138 76.394-31.36 19.243-19.307 31.104-45.867 31.125-75.222-0.896-35.37 3.69-74.154 14.187-112.576 3.115-11.37 14.827-18.070 26.197-14.954s18.070 14.827 14.954 26.197c-9.45 34.666-13.483 69.334-12.672 100.438 0 0.107 0 0.234 0 0.341 0 0.064 0 0.128 0 0.192zM149.248 332.565l161.92-161.899h-201.322c18.602 30.464 38.037 81.322 39.403 161.899zM6.25 475.584l103.594-103.594c-2.261-10.518-3.306-20.992-3.178-30.933 0-130.432-51.050-171.392-54.678-174.101-9.664-6.57-12.224-19.712-5.739-29.462 4.096-6.123 10.794-9.45 17.75-9.493h289.834l121.75-121.75c8.341-8.342 21.846-8.342 30.166 0s8.341 21.846 0 30.166l-469.334 469.334c-8.341 8.341-21.846 8.341-30.166 0s-8.341-21.846 0-30.166z" />
<glyph unicode="&#xe920;" glyph-name="bluetooth" d="M277.334 307.499v131.669l65.834-65.834zM277.334 204.502l65.834-65.834-65.834-65.834zM123.584 358.25l102.25-102.25-102.251-102.25c-8.341-8.341-8.341-21.846 0-30.166s21.846-8.341 30.165 0l80.917 80.918v-183.168c0-5.462 2.090-10.923 6.25-15.082 8.341-8.342 21.846-8.342 30.166 0l117.334 117.334c8.341 8.341 8.341 21.846 0 30.166l-102.25 102.25 102.25 102.25c8.341 8.341 8.341 21.846 0 30.166l-117.334 117.334c-3.861 3.861-9.195 6.25-15.082 6.25-11.776 0-21.334-9.557-21.334-21.333v-183.168l-80.918 80.918c-8.341 8.341-21.846 8.341-30.166 0s-8.341-21.846 0-30.166z" />
<glyph unicode="&#xe921;" glyph-name="bold" d="M149.333 277.333v128h149.333c17.685 0 33.642-7.146 45.248-18.752s18.752-27.563 18.752-45.248-7.147-33.642-18.752-45.248-27.563-18.752-45.248-18.752zM106.666 256v-170.667c0-11.776 9.558-21.334 21.334-21.334h192c29.44 0 56.149 11.968 75.435 31.232s31.232 45.995 31.232 75.435-11.968 56.149-31.232 75.435c-6.933 6.933-14.827 12.928-23.466 17.75 0.726 0.683 1.43 1.365 2.134 2.070 19.264 19.264 31.232 45.974 31.232 75.413s-11.968 56.149-31.232 75.435-45.995 31.232-75.435 31.232h-170.667c-11.776 0-21.334-9.558-21.334-21.333zM149.333 234.666h170.667c17.685 0 33.642-7.147 45.248-18.752s18.752-27.563 18.752-45.248-7.147-33.642-18.752-45.248-27.563-18.752-45.248-18.752h-170.667z" />
<glyph unicode="&#xe922;" glyph-name="book" d="M138.667 490.666c-20.608 0-39.317-8.384-52.8-21.866s-21.867-32.192-21.867-52.8v-320c0-20.608 8.384-39.317 21.867-52.8s32.192-21.866 52.8-21.866h288c11.776 0 21.334 9.558 21.334 21.334v426.666c0 11.776-9.558 21.334-21.334 21.334zM405.334 128v-64h-266.666c-8.832 0-16.811 3.563-22.635 9.365s-9.365 13.803-9.365 22.635 3.563 16.81 9.365 22.635 13.803 9.365 22.635 9.365zM138.667 448h266.666v-277.334h-266.666c-11.456 0-22.293-2.582-32-7.19v252.523c0 8.832 3.563 16.81 9.365 22.635s13.803 9.365 22.635 9.365z" />
<glyph unicode="&#xe923;" glyph-name="book-open" d="M448 426.666v-277.334h-128c-15.531 0-30.123-4.16-42.666-11.413v224.746c0 17.686 7.147 33.643 18.752 45.248s27.563 18.752 45.248 18.752zM234.667 137.92c-12.544 7.253-27.136 11.413-42.667 11.413h-128v277.334h106.666c17.685 0 33.642-7.147 45.248-18.752s18.752-27.563 18.752-45.248zM469.334 469.334h-128c-29.44 0-56.149-11.968-75.435-31.232-3.563-3.563-6.87-7.381-9.899-11.434-3.030 4.053-6.336 7.872-9.899 11.434-19.286 19.264-45.995 31.232-75.435 31.232h-128c-11.776 0-21.334-9.558-21.334-21.334v-320c0-11.776 9.557-21.334 21.334-21.334h149.333c11.797 0 22.422-4.757 30.166-12.502s12.501-18.368 12.501-30.166c0-11.776 9.558-21.334 21.334-21.334s21.334 9.558 21.334 21.334c0 11.798 4.757 22.421 12.502 30.166s18.368 12.502 30.166 12.502h149.334c11.776 0 21.334 9.558 21.334 21.334v320c0 11.776-9.558 21.334-21.334 21.334z" />
<glyph unicode="&#xe924;" glyph-name="bookmark" d="M392.938 46.635c3.435-2.474 7.744-3.968 12.394-3.968 11.776 0 21.334 9.558 21.334 21.334v341.334c0 17.664-7.19 33.707-18.752 45.248s-27.584 18.752-45.248 18.752h-213.333c-17.664 0-33.707-7.19-45.248-18.752s-18.752-27.584-18.752-45.248v-341.334c-0.022-4.245 1.28-8.618 3.968-12.394 6.848-9.579 20.181-11.818 29.76-4.95l136.938 97.792zM384 105.45l-115.606 82.582c-7.574 5.418-17.472 5.163-24.79 0l-115.606-82.582v299.882c0 5.888 2.368 11.2 6.25 15.082s9.195 6.25 15.083 6.25h213.333c5.888 0 11.2-2.368 15.082-6.25s6.25-9.195 6.25-15.082z" />
<glyph unicode="&#xe925;" glyph-name="box" d="M404.502 366.336l-148.502-85.909-148.501 85.909 137.728 78.698c2.389 1.365 4.95 2.24 7.573 2.646 4.651 0.726 9.493-0.064 13.952-2.646zM245.888 22.166c3.008-1.622 6.464-2.538 10.112-2.538 3.69 0 7.168 0.938 10.197 2.582 7.594 1.238 14.954 3.84 21.696 7.68l149.355 85.355c13.184 7.616 22.613 19.136 27.712 32.298 2.837 7.296 4.31 15.082 4.373 23.125v170.667c0 10.197-2.411 19.861-6.699 28.458-0.469 1.514-1.11 2.986-1.942 4.416-0.981 1.685-2.134 3.179-3.456 4.48-0.661 0.918-1.365 1.835-2.070 2.71-4.906 6.101-10.923 11.264-17.728 15.253l-149.525 85.44c-13.014 7.51-27.733 9.92-41.685 7.765-7.744-1.216-15.254-3.818-22.123-7.744l-149.355-85.354c-8.171-4.715-14.912-10.944-20.075-18.134-1.28-1.28-2.432-2.774-3.392-4.416-0.832-1.45-1.493-2.944-1.962-4.48-0.853-1.707-1.621-3.478-2.304-5.248-2.816-7.317-4.288-15.104-4.352-22.997v-170.816c0.022-15.147 5.291-29.077 14.166-40.064 4.907-6.101 10.922-11.264 17.728-15.253l149.525-85.44c6.912-3.99 14.293-6.55 21.803-7.723zM234.667 243.478v-170.474l-138.56 79.168c-2.368 1.387-4.416 3.158-6.080 5.226-2.966 3.67-4.694 8.235-4.694 13.269v159.19zM277.334 73.002v170.474l149.334 86.379v-159.19c-0.022-2.582-0.534-5.248-1.493-7.723-1.707-4.394-4.8-8.192-9.088-10.666z" />
<glyph unicode="&#xe926;" glyph-name="briefcase" d="M192 384v21.333c0 5.888 2.368 11.2 6.25 15.083s9.195 6.25 15.083 6.25h85.333c5.888 0 11.2-2.368 15.082-6.25s6.25-9.195 6.25-15.083v-21.333zM192 85.334v256h128v-256zM149.333 341.333v-256h-64c-5.888 0-11.2 2.368-15.082 6.25s-6.251 9.195-6.251 15.082v213.333c0 5.888 2.368 11.2 6.251 15.083s9.195 6.25 15.082 6.25zM362.666 384v21.333c0 17.664-7.19 33.707-18.752 45.248s-27.584 18.752-45.248 18.752h-85.334c-17.664 0-33.707-7.19-45.248-18.752s-18.752-27.584-18.752-45.248v-21.334h-64c-17.664 0-33.706-7.189-45.248-18.752s-18.752-27.584-18.752-45.248v-213.333c0-17.664 7.189-33.707 18.752-45.248s27.584-18.752 45.248-18.752h341.334c17.664 0 33.707 7.19 45.248 18.752s18.752 27.584 18.752 45.248v213.333c0 17.664-7.19 33.707-18.752 45.248s-27.584 18.752-45.248 18.752zM362.666 85.334v256h64c5.888 0 11.2-2.368 15.082-6.25s6.25-9.195 6.25-15.083v-213.333c0-5.888-2.368-11.2-6.25-15.082s-9.195-6.25-15.082-6.25z" />
<glyph unicode="&#xe927;" glyph-name="calendar" d="M149.333 469.334v-21.334h-42.666c-17.664 0-33.706-7.19-45.248-18.752s-18.752-27.584-18.752-45.248v-298.666c0-17.664 7.19-33.707 18.752-45.248s27.584-18.752 45.248-18.752h298.666c17.664 0 33.707 7.19 45.248 18.752s18.752 27.584 18.752 45.248v298.666c0 17.664-7.19 33.707-18.752 45.248s-27.584 18.752-45.248 18.752h-42.666v21.333c0 11.776-9.558 21.334-21.334 21.334s-21.334-9.558-21.334-21.334v-21.333h-128v21.333c0 11.776-9.558 21.334-21.334 21.334s-21.334-9.558-21.334-21.334zM426.666 320h-341.334v64c0 5.888 2.368 11.2 6.251 15.082s9.195 6.25 15.082 6.25h42.667v-21.333c0-11.776 9.558-21.334 21.334-21.334s21.334 9.558 21.334 21.334v21.333h128v-21.333c0-11.776 9.558-21.334 21.334-21.334s21.334 9.558 21.334 21.334v21.333h42.666c5.888 0 11.2-2.368 15.082-6.25s6.25-9.194 6.25-15.082zM85.334 277.333h341.334v-192c0-5.888-2.368-11.2-6.25-15.082s-9.195-6.25-15.082-6.25h-298.666c-5.888 0-11.2 2.368-15.082 6.25s-6.251 9.195-6.251 15.082z" />
<glyph unicode="&#xe928;" glyph-name="camera" d="M512 106.666v234.666c0 17.664-7.19 33.707-18.752 45.248s-27.584 18.752-45.248 18.752h-73.92l-36.33 54.507c-3.882 5.76-10.368 9.493-17.75 9.493h-128c-6.954-0.043-13.654-3.37-17.75-9.493l-36.331-54.507h-73.92c-17.664 0-33.706-7.189-45.248-18.752s-18.752-27.584-18.752-45.248v-234.666c0-17.664 7.189-33.707 18.752-45.248s27.584-18.752 45.248-18.752h384c17.664 0 33.707 7.19 45.248 18.752s18.752 27.584 18.752 45.248zM469.334 106.666c0-5.888-2.368-11.2-6.25-15.082s-9.195-6.25-15.082-6.25h-384c-5.888 0-11.2 2.368-15.082 6.25s-6.251 9.195-6.251 15.082v234.666c0 5.888 2.368 11.2 6.251 15.083s9.194 6.25 15.082 6.25h85.334c7.381 0 13.867 3.733 17.75 9.493l36.331 54.507h105.174l36.331-54.507c4.096-6.122 10.794-9.45 17.75-9.493h85.334c5.888 0 11.2-2.368 15.082-6.25s6.25-9.195 6.25-15.083zM362.666 234.666c0 29.44-11.968 56.149-31.232 75.435s-45.995 31.232-75.435 31.232-56.149-11.968-75.435-31.232-31.232-45.995-31.232-75.435 11.968-56.149 31.232-75.435 45.995-31.232 75.435-31.232 56.149 11.968 75.435 31.232 31.232 45.995 31.232 75.435zM320 234.666c0-17.685-7.147-33.642-18.752-45.248s-27.563-18.752-45.248-18.752-33.642 7.147-45.248 18.752-18.752 27.563-18.752 45.248 7.147 33.642 18.752 45.248 27.563 18.752 45.248 18.752 33.642-7.147 45.248-18.752 18.752-27.563 18.752-45.248z" />
<glyph unicode="&#xe929;" glyph-name="camera-off" d="M192 426.666h116.587l36.331-54.507c4.096-6.122 10.794-9.45 17.75-9.493h85.334c5.888 0 11.2-2.368 15.082-6.25s6.25-9.195 6.25-15.083v-199.253c0-11.776 9.558-21.334 21.334-21.334s21.333 9.558 21.333 21.334v199.253c0 17.664-7.19 33.707-18.752 45.248s-27.584 18.752-45.248 18.752h-73.92l-36.33 54.507c-3.882 5.76-10.368 9.493-17.75 9.493h-128c-11.776 0-21.334-9.558-21.334-21.334s9.558-21.334 21.334-21.334zM176.256 305.578c-3.114-3.477-6.037-7.189-8.726-11.136-16.64-24.298-21.824-53.099-16.81-79.894s20.309-51.755 44.608-68.374 53.099-21.824 79.893-16.81c18.923 3.541 36.906 12.202 51.712 25.536l69.568-69.568h-332.502c-5.888 0-11.2 2.368-15.082 6.25s-6.251 9.195-6.251 15.082v234.667c0 5.888 2.368 11.2 6.251 15.082s9.194 6.25 15.082 6.25h55.168zM222.144 320.043l-185.728 185.706c-8.341 8.342-21.846 8.342-30.166 0s-8.341-21.845 0-30.166l70.251-70.25h-12.502c-17.664 0-33.706-7.189-45.248-18.752s-18.752-27.584-18.752-45.248v-234.666c0-17.664 7.189-33.707 18.752-45.248s27.584-18.752 45.248-18.752h375.168l36.416-36.416c8.341-8.341 21.846-8.341 30.166 0s8.341 21.846 0 30.166l-283.050 283.050zM296.683 185.152c-8.534-7.168-18.666-11.84-29.334-13.846-16.128-3.029-33.344 0.106-47.936 10.091s-23.744 24.896-26.773 41.024 0.107 33.344 10.090 47.936c1.195 1.75 2.453 3.413 3.755 4.971z" />
<glyph unicode="&#xe92a;" glyph-name="cast" d="M38.4 147.627c20.011-4.075 36.886-14.805 48.896-29.568 8.64-10.603 14.784-23.317 17.686-37.142 2.432-11.52 13.739-18.901 25.28-16.469s18.901 13.738 16.47 25.28c-4.309 20.48-13.44 39.403-26.346 55.274-18.026 22.144-43.477 38.315-73.451 44.438-11.541 2.346-22.805-5.099-25.174-16.64s5.098-22.805 16.64-25.173zM40.298 233.728c42.688-4.757 79.872-24.81 106.794-54.315 23.872-26.154 39.659-59.712 43.968-96.555 1.365-11.712 11.968-20.075 23.659-18.709s20.075 11.968 18.709 23.659c-5.355 45.866-25.046 87.722-54.827 120.363-33.664 36.885-80.278 62.037-133.611 67.968-11.712 1.302-22.25-7.125-23.552-18.837s7.125-22.251 18.837-23.552zM64 341.333v42.667c0 5.888 2.368 11.2 6.251 15.082s9.195 6.25 15.082 6.25h341.334c5.888 0 11.2-2.368 15.082-6.25s6.25-9.195 6.25-15.082v-256c0-5.888-2.368-11.2-6.25-15.082s-9.195-6.25-15.082-6.25h-128c-11.776 0-21.334-9.558-21.334-21.334s9.558-21.334 21.334-21.334h128c17.664 0 33.707 7.19 45.248 18.752s18.752 27.584 18.752 45.248v256c0 17.664-7.19 33.707-18.752 45.248s-27.584 18.752-45.248 18.752h-341.334c-17.664 0-33.706-7.19-45.248-18.752s-18.752-27.584-18.752-45.248v-42.666c0-11.776 9.558-21.334 21.333-21.334s21.334 9.558 21.334 21.334zM42.666 64c11.776 0 21.334 9.558 21.334 21.334s-9.557 21.334-21.334 21.334-21.334-9.558-21.334-21.334 9.557-21.334 21.334-21.334z" />
<glyph unicode="&#xe92b;" glyph-name="check" d="M411.584 399.082l-219.584-219.584-91.584 91.584c-8.341 8.341-21.846 8.341-30.166 0s-8.341-21.846 0-30.166l106.666-106.666c8.341-8.341 21.846-8.341 30.166 0l234.667 234.667c8.341 8.341 8.341 21.845 0 30.165s-21.846 8.341-30.166 0z" />
<glyph unicode="&#xe92c;" glyph-name="check-circle" d="M448 275.626v-19.626c-0.022-53.014-21.526-100.971-56.32-135.722s-82.774-56.192-135.786-56.149-100.992 21.526-135.722 56.32-56.192 82.752-56.171 135.786 21.525 100.971 56.32 135.722 82.773 56.192 135.786 56.171c28.373-0.022 55.168-6.166 77.846-16.533 10.709-4.907 23.382-0.171 28.267 10.538s0.171 23.382-10.538 28.267c-28.31 12.928-61.142 20.374-95.552 20.394-64.79 0.043-123.499-26.218-165.974-68.63s-68.778-101.12-68.822-165.909 26.218-123.499 68.629-165.974 101.099-68.8 165.888-68.822 123.499 26.219 165.973 68.63 68.8 101.099 68.842 165.91v19.626c0 11.776-9.558 21.334-21.334 21.334s-21.334-9.558-21.334-21.334zM454.25 441.75l-198.25-198.442-48.917 48.896c-8.341 8.341-21.845 8.341-30.166 0s-8.341-21.846 0-30.166l64-64c8.341-8.341 21.845-8.32 30.186 0l213.334 213.547c8.32 8.341 8.32 21.845-0.022 30.165s-21.846 8.32-30.166-0.022z" />
<glyph unicode="&#xe92d;" glyph-name="check-square" d="M176.917 262.25l64-64c8.341-8.341 21.845-8.341 30.165 0l213.333 213.333c8.341 8.341 8.341 21.846 0 30.166s-21.846 8.341-30.166 0l-198.25-198.25-48.917 48.918c-8.341 8.341-21.845 8.341-30.166 0s-8.341-21.846 0-30.166zM426.666 256v-149.333c0-5.888-2.368-11.2-6.25-15.082s-9.195-6.25-15.082-6.25h-298.666c-5.888 0-11.2 2.368-15.082 6.25s-6.251 9.195-6.251 15.082v298.666c0 5.888 2.368 11.2 6.251 15.082s9.195 6.251 15.082 6.251h234.667c11.776 0 21.334 9.558 21.334 21.333s-9.558 21.334-21.334 21.334h-234.667c-17.664 0-33.707-7.19-45.248-18.752s-18.752-27.584-18.752-45.248v-298.666c0-17.664 7.19-33.707 18.752-45.248s27.584-18.752 45.248-18.752h298.667c17.664 0 33.707 7.19 45.248 18.752s18.752 27.584 18.752 45.248v149.333c0 11.776-9.558 21.334-21.334 21.334s-21.334-9.558-21.334-21.334z" />
<glyph unicode="&#xe92e;" glyph-name="chevron-down" d="M112.918 304.918l128-128c8.341-8.341 21.846-8.341 30.166 0l128 128c8.341 8.341 8.341 21.846 0 30.166s-21.846 8.341-30.166 0l-112.918-112.918-112.918 112.918c-8.341 8.341-21.846 8.341-30.166 0s-8.341-21.846 0-30.166z" />
<glyph unicode="&#xe92f;" glyph-name="chevron-left" d="M335.082 143.082l-112.918 112.918 112.918 112.918c8.341 8.341 8.341 21.846 0 30.166s-21.846 8.341-30.166 0l-128-128c-8.341-8.341-8.341-21.846 0-30.166l128-128c8.341-8.341 21.846-8.341 30.166 0s8.341 21.846 0 30.166z" />
<glyph unicode="&#xe930;" glyph-name="chevron-right" d="M207.083 112.918l128 128c8.341 8.341 8.341 21.846 0 30.166l-128 128c-8.341 8.341-21.846 8.341-30.166 0s-8.341-21.846 0-30.166l112.918-112.918-112.918-112.918c-8.341-8.341-8.341-21.846 0-30.166s21.846-8.341 30.166 0z" />
<glyph unicode="&#xe931;" glyph-name="chevron-up" d="M399.082 207.082l-128 128c-8.341 8.341-21.846 8.341-30.166 0l-128-128c-8.341-8.341-8.341-21.846 0-30.166s21.846-8.341 30.166 0l112.918 112.918 112.918-112.918c8.341-8.341 21.846-8.341 30.166 0s8.341 21.846 0 30.166z" />
<glyph unicode="&#xe932;" glyph-name="chevrons-down" d="M134.25 219.584l106.666-106.666c8.341-8.341 21.846-8.341 30.166 0l106.666 106.666c8.341 8.341 8.341 21.846 0 30.166s-21.846 8.341-30.166 0l-91.584-91.584-91.584 91.584c-8.341 8.341-21.846 8.341-30.166 0s-8.341-21.846 0-30.166zM134.25 368.918l106.666-106.667c8.341-8.341 21.846-8.341 30.166 0l106.666 106.666c8.341 8.341 8.341 21.845 0 30.166s-21.846 8.341-30.166 0l-91.584-91.584-91.584 91.584c-8.341 8.341-21.846 8.341-30.166 0s-8.341-21.846 0-30.166z" />
<glyph unicode="&#xe933;" glyph-name="chevrons-left" d="M249.75 164.416l-91.584 91.584 91.584 91.584c8.341 8.341 8.341 21.846 0 30.166s-21.846 8.341-30.166 0l-106.666-106.666c-8.341-8.341-8.341-21.846 0-30.166l106.666-106.666c8.341-8.341 21.846-8.341 30.166 0s8.341 21.846 0 30.166zM399.082 164.416l-91.584 91.584 91.584 91.584c8.341 8.341 8.341 21.846 0 30.166s-21.846 8.341-30.166 0l-106.666-106.666c-8.341-8.341-8.341-21.846 0-30.166l106.666-106.666c8.341-8.341 21.846-8.341 30.166 0s8.341 21.846 0 30.166z" />
<glyph unicode="&#xe934;" glyph-name="chevrons-right" d="M292.416 134.25l106.666 106.666c8.341 8.341 8.341 21.846 0 30.166l-106.666 106.666c-8.341 8.341-21.846 8.341-30.166 0s-8.341-21.846 0-30.166l91.584-91.584-91.584-91.584c-8.341-8.341-8.341-21.846 0-30.166s21.846-8.341 30.166 0zM143.083 134.25l106.667 106.666c8.341 8.341 8.341 21.846 0 30.166l-106.666 106.666c-8.341 8.341-21.846 8.341-30.166 0s-8.341-21.846 0-30.166l91.584-91.584-91.584-91.584c-8.341-8.341-8.341-21.846 0-30.166s21.846-8.341 30.166 0z" />
<glyph unicode="&#xe935;" glyph-name="chevrons-up" d="M377.75 292.416l-106.666 106.666c-8.341 8.341-21.846 8.341-30.166 0l-106.666-106.666c-8.341-8.341-8.341-21.846 0-30.166s21.846-8.341 30.166 0l91.584 91.584 91.584-91.584c8.341-8.341 21.846-8.341 30.166 0s8.341 21.846 0 30.166zM377.75 143.082l-106.666 106.666c-8.341 8.341-21.846 8.341-30.166 0l-106.666-106.666c-8.341-8.341-8.341-21.846 0-30.166s21.846-8.341 30.166 0l91.584 91.584 91.584-91.584c8.341-8.341 21.846-8.341 30.166 0s8.341 21.846 0 30.166z" />
<glyph unicode="&#xe936;" glyph-name="chrome" d="M157.91 297.962l-47.872 82.795c3.243 3.797 6.656 7.466 10.198 11.008 34.774 34.774 82.731 56.235 135.765 56.235s100.992-21.462 135.765-56.235c8.875-8.875 16.896-18.624 23.914-29.099h-159.68c-29.44 0-56.149-11.968-75.435-31.232-9.536-9.536-17.28-20.864-22.678-33.472zM228.267 22.954c0.982-0.171 1.963-0.298 2.965-0.32 8.128-0.853 16.405-1.301 24.768-1.301 64.789 0 123.499 26.282 165.93 68.736s68.736 101.142 68.736 165.93c0 32.832-6.762 64.106-18.944 92.501-0.341 0.939-0.726 1.835-1.173 2.688-11.798 26.538-28.373 50.496-48.618 70.742-42.432 42.454-101.142 68.736-165.93 68.736s-123.499-26.282-165.93-68.736c-7.808-7.786-15.061-16.15-21.696-24.982-0.896-1.002-1.686-2.069-2.368-3.178-28.096-38.678-44.672-86.314-44.672-137.77 0-64.789 26.282-123.499 68.736-165.93 36.288-36.288 84.48-60.779 138.197-67.115zM268.693 150.080l-47.808-82.88c-38.934 7.19-73.75 26.134-100.65 53.034-34.773 34.774-56.234 82.731-56.234 135.766 0 30.506 7.104 59.35 19.776 84.95l77.717-134.442c5.035-9.6 11.499-18.325 19.072-25.92 19.286-19.286 45.995-31.253 75.435-31.253 4.288 0 8.534 0.256 12.693 0.747zM312.277 225.472c-0.32-0.469-0.64-0.981-0.938-1.472l-1.622-2.816c-2.454-3.755-5.291-7.253-8.448-10.432-11.627-11.606-27.584-18.752-45.269-18.752s-33.642 7.147-45.248 18.752c-3.542 3.541-6.656 7.488-9.302 11.755-0.234 0.512-0.512 1.002-0.79 1.493l-1.75 3.008c-4.416 8.704-6.912 18.56-6.912 28.992 0 17.685 7.147 33.642 18.752 45.248s27.563 18.752 45.248 18.752 33.643-7.147 45.248-18.752 18.752-27.563 18.752-45.248c0-11.050-2.795-21.462-7.723-30.528zM268.544 64.406l77.654 134.635c10.432 16.469 16.469 36.010 16.469 56.96 0 24-7.957 46.187-21.334 64h95.744c7.082-20.010 10.923-41.558 10.923-64 0-53.034-21.462-100.992-56.235-135.765-32-32-75.2-52.736-123.221-55.829z" />
<glyph unicode="&#xe937;" glyph-name="circle" d="M490.666 256c0 64.789-26.282 123.499-68.736 165.93s-101.142 68.736-165.93 68.736-123.499-26.282-165.93-68.736-68.736-101.142-68.736-165.93 26.282-123.499 68.736-165.93 101.142-68.736 165.93-68.736 123.499 26.282 165.93 68.736 68.736 101.142 68.736 165.93zM448 256c0-53.034-21.462-100.992-56.235-135.765s-82.731-56.235-135.766-56.235-100.992 21.462-135.766 56.235-56.234 82.731-56.234 135.765 21.462 100.992 56.234 135.766 82.731 56.234 135.766 56.234 100.992-21.462 135.766-56.234 56.235-82.731 56.235-135.766z" />
<glyph unicode="&#xe938;" glyph-name="clipboard" d="M149.333 405.333c0-11.776 4.8-22.464 12.501-30.165s18.389-12.501 30.166-12.501h128c11.776 0 22.464 4.8 30.166 12.501s12.502 18.389 12.502 30.166h21.334c5.888 0 11.2-2.368 15.082-6.251s6.25-9.194 6.25-15.082v-298.666c0-5.888-2.368-11.2-6.25-15.082s-9.195-6.25-15.082-6.25h-256c-5.888 0-11.2 2.368-15.082 6.25s-6.251 9.195-6.251 15.082v298.666c0 5.888 2.368 11.2 6.251 15.082s9.195 6.251 15.082 6.251zM192 490.666c-11.776 0-22.464-4.8-30.166-12.502s-12.501-18.389-12.501-30.165h-21.334c-17.664 0-33.706-7.19-45.248-18.752s-18.752-27.584-18.752-45.248v-298.666c0-17.664 7.189-33.707 18.752-45.248s27.584-18.752 45.248-18.752h256c17.664 0 33.707 7.19 45.248 18.752s18.752 27.584 18.752 45.248v298.666c0 17.664-7.19 33.707-18.752 45.248s-27.584 18.752-45.248 18.752h-21.334c0 11.776-4.8 22.464-12.502 30.165s-18.389 12.502-30.166 12.502zM192 448h128v-42.667h-128z" />
<glyph unicode="&#xe939;" glyph-name="clock" d="M490.666 256c0 64.789-26.282 123.499-68.736 165.93s-101.142 68.736-165.93 68.736-123.499-26.282-165.93-68.736-68.736-101.142-68.736-165.93 26.282-123.499 68.736-165.93 101.142-68.736 165.93-68.736 123.499 26.282 165.93 68.736 68.736 101.142 68.736 165.93zM448 256c0-53.034-21.462-100.992-56.235-135.765s-82.731-56.235-135.766-56.235-100.992 21.462-135.766 56.235-56.234 82.731-56.234 135.765 21.462 100.992 56.234 135.766 82.731 56.234 135.766 56.234 100.992-21.462 135.766-56.234 56.235-82.731 56.235-135.766zM234.667 384v-128c0-8.298 4.736-15.51 11.797-19.072l85.334-42.666c10.538-5.269 23.36-1.002 28.63 9.536s1.002 23.36-9.536 28.63l-73.558 36.757v114.816c0 11.776-9.558 21.334-21.334 21.334s-21.334-9.558-21.334-21.334z" />
<glyph unicode="&#xe93a;" glyph-name="cloud" d="M384 277.333c23.574 0 44.864-9.536 60.331-25.002s25.002-36.757 25.002-60.33-9.536-44.864-25.002-60.331-36.757-25.002-60.331-25.002h-191.893c-31.21 0.171-60.864 9.834-85.44 26.837-28.459 19.67-50.090 49.152-59.392 85.162-10.304 39.936-3.477 80.235 15.958 113.173s51.371 58.432 91.306 68.757 80.234 3.478 113.173-15.958 58.432-51.37 68.757-91.306c2.454-9.28 10.774-16 20.651-16zM384 320h-11.094c-15.466 43.882-45.718 79.104-83.52 101.397-42.304 24.939-94.186 33.771-145.514 20.502s-92.459-46.080-117.397-88.384-33.749-94.187-20.502-145.514c11.947-46.272 39.83-84.288 76.438-109.589 31.531-21.824 69.568-34.197 109.483-34.411h192.106c35.349 0 67.37 14.358 90.517 37.483s37.483 55.168 37.483 90.517-14.358 67.37-37.483 90.517-55.168 37.483-90.517 37.483z" />
<glyph unicode="&#xe93b;" glyph-name="cloud-drizzle" d="M149.333 106.666v-42.666c0-11.776 9.558-21.334 21.333-21.334s21.334 9.558 21.334 21.334v42.666c0 11.776-9.558 21.334-21.334 21.334s-21.334-9.558-21.334-21.334zM149.333 234.666v-42.666c0-11.776 9.558-21.334 21.333-21.334s21.334 9.558 21.334 21.334v42.666c0 11.776-9.558 21.334-21.334 21.334s-21.334-9.558-21.334-21.334zM320 106.666v-42.666c0-11.776 9.558-21.334 21.334-21.334s21.334 9.558 21.334 21.334v42.666c0 11.776-9.558 21.334-21.334 21.334s-21.334-9.558-21.334-21.334zM320 234.666v-42.666c0-11.776 9.558-21.334 21.334-21.334s21.334 9.558 21.334 21.334v42.666c0 11.776-9.558 21.334-21.334 21.334s-21.334-9.558-21.334-21.334zM234.667 64v-42.666c0-11.776 9.558-21.334 21.333-21.334s21.334 9.558 21.334 21.334v42.666c0 11.776-9.558 21.334-21.334 21.334s-21.334-9.558-21.334-21.334zM234.667 192v-42.666c0-11.776 9.558-21.334 21.333-21.334s21.334 9.558 21.334 21.334v42.666c0 11.776-9.558 21.334-21.334 21.334s-21.334-9.558-21.334-21.334zM435.221 138.752c32.363 14.187 55.957 40.171 67.861 70.656s12.202 65.579-1.962 97.942c-12.245 27.968-33.344 49.408-58.709 62.4-17.834 9.131-37.781 14.080-58.24 14.25h-11.264c-15.466 43.883-45.718 79.104-83.52 101.398-42.304 24.938-94.186 33.75-145.514 20.501s-92.459-46.101-117.397-88.405-33.749-94.187-20.502-145.514c10.858-42.026 34.858-77.291 66.112-102.038 9.237-7.317 22.656-5.76 29.974 3.478s5.76 22.656-3.478 29.974c-24.15 19.136-42.837 46.486-51.306 79.274-10.304 39.914-3.477 80.214 15.957 113.173s51.37 58.432 91.306 68.757 80.234 3.478 113.173-15.957 58.432-51.37 68.757-91.306c2.454-9.28 10.774-16 20.651-16h26.709c13.803-0.107 27.2-3.456 39.125-9.558 16.918-8.662 30.89-22.891 39.082-41.536 9.45-21.589 9.28-44.928 1.322-65.301s-23.659-37.654-45.248-47.104c-10.794-4.736-15.702-17.301-10.986-28.096s17.301-15.702 28.096-10.986z" />
<glyph unicode="&#xe93c;" glyph-name="cloud-lightning" d="M409.579 130.56c34.624 7.040 63.168 27.478 81.238 54.742s25.77 61.526 18.731 96.149c-6.464 31.808-24.235 58.496-48.363 76.63-21.718 16.363-48.618 25.813-77.099 25.92h-11.178c-15.466 43.883-45.717 79.104-83.52 101.398-42.304 24.938-94.186 33.75-145.514 20.501s-92.459-46.122-117.397-88.405-33.749-94.187-20.502-145.514c12.736-49.344 43.584-89.259 83.606-114.454 3.050-1.92 6.144-3.755 9.302-5.504 10.304-5.717 23.296-1.984 28.992 8.32s1.984 23.296-8.32 28.992c-2.454 1.365-4.886 2.795-7.254 4.288-31.189 19.648-55.104 50.646-65.024 89.024-10.304 39.936-3.477 80.234 15.936 113.173s51.37 58.432 91.306 68.757 80.234 3.478 113.174-15.936 58.432-51.371 68.757-91.306c2.474-9.28 10.794-16 20.672-16h26.794c19.115-0.086 37.12-6.4 51.627-17.322 16.086-12.096 27.882-29.803 32.192-51.030 4.694-23.104-0.406-45.867-12.48-64.106s-31.062-31.808-54.166-36.502c-11.541-2.346-19.008-13.611-16.661-25.152s13.611-19.008 25.152-16.661zM259.584 289.173l-85.334-128c-6.528-9.813-3.882-23.040 5.91-29.589 3.669-2.454 7.829-3.606 11.84-3.584h88.128l-63.232-94.827c-6.528-9.813-3.882-23.040 5.91-29.589s23.040-3.882 29.589 5.909l85.334 128c2.262 3.328 3.606 7.424 3.606 11.84 0 11.776-9.558 21.334-21.334 21.334h-88.128l63.232 94.827c6.528 9.814 3.882 23.040-5.909 29.589s-23.040 3.882-29.589-5.909z" />
<glyph unicode="&#xe93d;" glyph-name="cloud-off" d="M501.995 142.080c13.782 32.534 13.056 67.627 0.768 97.963s-36.181 56.043-68.714 69.824c-16.555 6.998-33.877 10.304-50.283 10.133h-10.794c-13.226 37.974-37.568 69.547-68.501 91.926-27.69 20.010-60.672 32.661-95.722 35.989-11.733 1.109-22.144-7.488-23.254-19.221s7.488-22.144 19.221-23.253c27.435-2.603 53.184-12.502 74.774-28.096 27.37-19.798 48.043-48.768 56.981-83.926 2.389-9.322 10.731-16.085 20.651-16.085h27.115c10.454 0.107 21.974-2.006 33.173-6.762 21.696-9.195 37.611-26.283 45.824-46.55s8.683-43.606-0.512-65.301c-4.587-10.858 0.469-23.36 11.328-27.968s23.36 0.469 27.968 11.328zM103.552 378.283l271.616-271.616h-183.381c-20.48-0.214-40.597 3.67-59.179 11.243-30.528 12.438-56.939 34.88-74.048 65.814-19.947 36.096-23.403 76.822-12.822 113.579 9.216 32 29.014 60.886 57.792 81.002zM6.25 475.584l66.752-66.774c-33.728-25.6-57.088-60.928-68.266-99.733-13.589-47.19-9.174-99.626 16.491-146.026 21.973-39.744 56.022-68.672 95.275-84.672 23.829-9.685 49.578-14.635 75.712-14.378h191.786c10.432 0.022 20.63 1.28 30.23 3.606l61.355-61.354c8.341-8.341 21.846-8.341 30.166 0s8.342 21.846 0 30.166l-469.334 469.334c-8.341 8.341-21.846 8.341-30.166 0s-8.341-21.846 0-30.166z" />
<glyph unicode="&#xe93e;" glyph-name="cloud-rain" d="M320 234.666v-170.666c0-11.776 9.558-21.334 21.334-21.334s21.334 9.558 21.334 21.334v170.667c0 11.776-9.558 21.334-21.334 21.334s-21.334-9.558-21.334-21.334zM149.333 234.666v-170.666c0-11.776 9.558-21.334 21.333-21.334s21.334 9.558 21.334 21.334v170.667c0 11.776-9.558 21.334-21.334 21.334s-21.334-9.558-21.334-21.334zM234.667 192v-170.667c0-11.776 9.558-21.333 21.333-21.333s21.334 9.558 21.334 21.334v170.666c0 11.776-9.558 21.334-21.334 21.334s-21.334-9.558-21.334-21.334zM435.221 138.752c32.363 14.187 55.957 40.171 67.861 70.656s12.202 65.579-1.962 97.942c-12.245 27.968-33.344 49.408-58.709 62.4-17.834 9.131-37.781 14.080-58.24 14.25h-11.264c-15.466 43.883-45.718 79.104-83.52 101.398-42.304 24.938-94.186 33.75-145.514 20.501s-92.459-46.101-117.397-88.405-33.749-94.187-20.502-145.514c10.858-42.026 34.858-77.291 66.112-102.038 9.237-7.317 22.656-5.76 29.974 3.478s5.76 22.656-3.478 29.974c-24.15 19.136-42.837 46.486-51.306 79.274-10.304 39.914-3.477 80.214 15.957 113.173s51.37 58.432 91.306 68.757 80.234 3.478 113.173-15.957 58.432-51.37 68.757-91.306c2.454-9.28 10.774-16 20.651-16h26.709c13.803-0.107 27.2-3.456 39.125-9.558 16.918-8.662 30.89-22.891 39.082-41.536 9.45-21.589 9.28-44.928 1.322-65.301s-23.659-37.654-45.248-47.104c-10.794-4.736-15.702-17.301-10.986-28.096s17.301-15.702 28.096-10.986z" />
<glyph unicode="&#xe93f;" glyph-name="cloud-snow" d="M435.221 117.418c32.363 14.187 55.957 40.171 67.861 70.656s12.202 65.579-1.962 97.942c-12.245 27.968-33.344 49.408-58.709 62.4-17.834 9.13-37.781 14.080-58.24 14.25h-11.264c-15.466 43.882-45.718 79.104-83.52 101.397-42.304 24.938-94.186 33.749-145.514 20.501s-92.459-46.101-117.397-88.406-33.749-94.186-20.502-145.514c10.858-42.026 34.858-77.291 66.112-102.038 9.237-7.317 22.656-5.76 29.974 3.478s5.76 22.656-3.478 29.974c-24.15 19.136-42.837 46.486-51.306 79.274-10.304 39.914-3.477 80.214 15.957 113.173s51.37 58.432 91.306 68.757 80.234 3.478 113.173-15.958 58.432-51.37 68.757-91.306c2.454-9.28 10.774-16 20.651-16h26.709c13.803-0.107 27.2-3.456 39.125-9.558 16.918-8.661 30.89-22.891 39.082-41.536 9.45-21.589 9.28-44.928 1.322-65.302s-23.659-37.654-45.248-47.104c-10.794-4.736-15.702-17.301-10.986-28.096s17.301-15.702 28.096-10.986zM170.667 149.334c11.776 0 21.333 9.558 21.333 21.334s-9.558 21.334-21.334 21.334-21.334-9.558-21.334-21.334 9.558-21.334 21.334-21.334zM170.667 64c11.776 0 21.333 9.558 21.333 21.334s-9.558 21.334-21.334 21.334-21.334-9.558-21.334-21.334 9.558-21.334 21.334-21.334zM256 106.666c11.776 0 21.334 9.558 21.334 21.334s-9.558 21.334-21.334 21.334-21.334-9.558-21.334-21.334 9.558-21.334 21.334-21.334zM256 21.334c11.776 0 21.334 9.558 21.334 21.334s-9.558 21.334-21.334 21.334-21.334-9.558-21.334-21.334 9.558-21.334 21.334-21.334zM341.334 149.334c11.776 0 21.334 9.558 21.334 21.334s-9.558 21.334-21.334 21.334-21.334-9.558-21.334-21.334 9.558-21.334 21.334-21.334zM341.334 64c11.776 0 21.334 9.558 21.334 21.334s-9.558 21.334-21.334 21.334-21.334-9.558-21.334-21.334 9.558-21.334 21.334-21.334z" />
<glyph unicode="&#xe940;" glyph-name="code" d="M356.416 112.918l128 128c8.341 8.341 8.341 21.846 0 30.166l-128 128c-8.341 8.341-21.846 8.341-30.166 0s-8.341-21.846 0-30.166l112.918-112.918-112.918-112.918c-8.341-8.341-8.341-21.846 0-30.166s21.846-8.341 30.166 0zM155.584 399.082l-128-128c-8.341-8.341-8.341-21.846 0-30.166l128-128c8.341-8.341 21.846-8.341 30.166 0s8.341 21.846 0 30.166l-112.918 112.918 112.918 112.918c8.341 8.341 8.341 21.846 0 30.166s-21.846 8.341-30.166 0z" />
<glyph unicode="&#xe941;" glyph-name="codepen" d="M112.128 256l-48.128-33.685v67.392zM448 222.315l-48.128 33.685 48.128 33.685zM362.666 229.952l68.522-47.978-153.856-99.99v88.256zM186.538 256l69.462 48.618 69.462-48.618-69.462-48.618zM80.811 181.995l68.522 47.957 85.333-59.733v-88.256zM267.882 487.061c-3.392 2.283-7.488 3.606-11.882 3.606s-8.49-1.322-11.882-3.606l-212.672-138.24c-2.389-1.494-4.544-3.478-6.25-5.931-2.666-3.798-3.925-8.17-3.861-12.48v-148.821c-0.043-3.925 0.982-7.894 3.157-11.435 0.875-1.45 1.942-2.795 3.178-4.010 1.003-1.002 2.134-1.899 3.37-2.709l0.405-0.256 212.672-138.24c3.392-2.283 7.488-3.606 11.882-3.606s8.49 1.322 11.882 3.606l212.672 138.24c2.389 1.472 4.544 3.456 6.25 5.909 2.666 3.798 3.904 8.171 3.861 12.502v148.821c0.043 3.926-0.981 7.894-3.158 11.435-0.875 1.43-1.942 2.795-3.178 4.011-1.002 1.002-2.134 1.899-3.37 2.709l-0.406 0.256zM277.334 341.781v88.234l153.856-100.010-68.522-47.957zM234.667 430.016v-88.256l-85.333-59.733-68.522 47.978z" />
<glyph unicode="&#xe942;" glyph-name="codesandbox" d="M308.075 421.44l-52.075-30.080-52.075 30.080 41.302 23.594c2.389 1.365 4.95 2.24 7.573 2.646 4.651 0.725 9.493-0.064 13.952-2.646zM85.334 219.029l53.334-30.805v-60.373l-42.56 24.32c-2.368 1.387-4.416 3.158-6.080 5.226-2.966 3.67-4.694 8.235-4.694 13.269zM373.334 127.851v60.373l53.334 30.805v-48.363c-0.022-2.582-0.534-5.248-1.493-7.723-1.707-4.394-4.8-8.192-9.088-10.666zM404.502 366.336l-148.502-85.909-148.501 85.909 53.547 30.613 84.288-48.704c6.805-3.925 14.87-3.69 21.354 0l84.267 48.683zM245.888 22.166c3.008-1.622 6.464-2.538 10.112-2.538 3.69 0 7.168 0.938 10.197 2.582 7.594 1.238 14.954 3.84 21.696 7.68l68.224 38.998c4.651 0.918 8.768 3.349 11.819 6.741l69.312 39.616c13.184 7.616 22.613 19.136 27.712 32.298 2.837 7.296 4.31 15.082 4.373 23.125v170.666c0 10.197-2.411 19.862-6.699 28.459-0.469 1.514-1.11 2.987-1.942 4.416-0.981 1.685-2.134 3.178-3.456 4.48-0.661 0.917-1.365 1.834-2.070 2.709-4.906 6.101-10.923 11.264-17.728 15.254l-69.504 39.702c-3.136 3.563-7.317 5.888-11.798 6.762l-68.202 38.976c-13.014 7.51-27.733 9.92-41.685 7.766-7.744-1.216-15.254-3.819-22.123-7.744l-68.267-38.998c-4.48-0.875-8.661-3.2-11.798-6.742l-69.312-39.616c-8.171-4.714-14.912-10.944-20.075-18.133-1.28-1.28-2.432-2.774-3.392-4.416-0.832-1.451-1.493-2.944-1.962-4.48-0.853-1.707-1.621-3.477-2.304-5.248-2.816-7.317-4.288-15.104-4.352-22.998v-170.816c0.022-15.147 5.291-29.077 14.166-40.064 4.907-6.101 10.923-11.264 17.728-15.253l69.504-39.723c3.030-3.413 7.147-5.846 11.819-6.741l68.203-38.976c6.912-3.99 14.293-6.55 21.803-7.723zM234.667 243.478v-170.474l-53.333 30.464v97.067c0 7.851-4.245 14.72-10.666 18.474l-85.334 49.302v61.546zM277.334 73.002v170.474l149.334 86.379v-61.547l-85.334-49.301c-6.805-3.925-10.624-11.029-10.666-18.474v-97.067z" />
<glyph unicode="&#xe943;" glyph-name="coffee" d="M405.334 192v128c17.685 0 33.642-7.147 45.248-18.752s18.752-27.563 18.752-45.248-7.147-33.642-18.752-45.248-27.563-18.752-45.248-18.752zM42.666 362.667c-11.776 0-21.334-9.558-21.334-21.334v-192c0-29.44 11.968-56.149 31.232-75.435s45.995-31.232 75.434-31.232h170.666c29.44 0 56.149 11.968 75.435 31.232s31.232 45.995 31.232 75.435c29.44 0 56.149 11.968 75.435 31.232s31.232 45.995 31.232 75.435-11.968 56.149-31.232 75.435-45.995 31.232-75.435 31.232h-21.334zM64 320h298.666v-170.667c0-17.685-7.147-33.642-18.752-45.248s-27.563-18.752-45.248-18.752h-170.667c-17.686 0-33.642 7.147-45.248 18.752s-18.752 27.563-18.752 45.248zM106.666 490.666v-64c0-11.776 9.558-21.334 21.334-21.334s21.334 9.558 21.334 21.334v64c0 11.776-9.558 21.334-21.334 21.334s-21.334-9.558-21.334-21.334zM192 490.666v-64c0-11.776 9.558-21.334 21.334-21.334s21.334 9.558 21.334 21.334v64c0 11.776-9.558 21.334-21.334 21.334s-21.334-9.558-21.334-21.334zM277.334 490.666v-64c0-11.776 9.558-21.334 21.334-21.334s21.334 9.558 21.334 21.334v64c0 11.776-9.558 21.334-21.334 21.334s-21.334-9.558-21.334-21.334z" />
<glyph unicode="&#xe944;" glyph-name="columns" d="M256 426.666h149.333c5.888 0 11.2-2.368 15.082-6.25s6.25-9.195 6.25-15.083v-298.666c0-5.888-2.368-11.2-6.25-15.082s-9.195-6.25-15.082-6.25h-149.333c-11.776 0-21.333-9.558-21.333-21.334s9.558-21.334 21.334-21.334h149.333c17.664 0 33.707 7.19 45.248 18.752s18.752 27.584 18.752 45.248v298.666c0 17.664-7.19 33.707-18.752 45.248s-27.584 18.752-45.248 18.752h-149.333c-11.776 0-21.333-9.558-21.333-21.334s9.558-21.333 21.334-21.333zM256 469.334h-149.333c-17.664 0-33.707-7.19-45.248-18.752s-18.752-27.584-18.752-45.248v-298.666c0-17.664 7.19-33.707 18.752-45.248s27.584-18.752 45.248-18.752h149.333c11.776 0 21.334 9.558 21.334 21.334s-9.558 21.334-21.334 21.334h-149.333c-5.888 0-11.2 2.368-15.082 6.25s-6.251 9.195-6.251 15.082v298.666c0 5.888 2.368 11.2 6.251 15.082s9.195 6.251 15.082 6.251h149.333c11.776 0 21.334 9.558 21.334 21.333s-9.558 21.334-21.334 21.334zM234.667 448v-384c0-11.776 9.558-21.334 21.333-21.334s21.334 9.558 21.334 21.334v384c0 11.776-9.558 21.334-21.334 21.334s-21.334-9.558-21.334-21.334z" />
<glyph unicode="&#xe945;" glyph-name="command" d="M341.334 170.666h42.666c11.798 0 22.421-4.757 30.166-12.502s12.502-18.368 12.502-30.166-4.757-22.421-12.502-30.166-18.368-12.502-30.166-12.502-22.421 4.757-30.166 12.502-12.502 18.368-12.502 30.166zM170.667 170.666v-42.666c0-11.798-4.757-22.421-12.501-30.166s-18.368-12.502-30.166-12.502-22.422 4.757-30.166 12.502-12.501 18.368-12.501 30.166 4.757 22.421 12.501 30.166 18.368 12.502 30.166 12.502zM170.667 341.333h-42.667c-11.797 0-22.422 4.758-30.166 12.502s-12.501 18.368-12.501 30.166 4.757 22.422 12.501 30.166 18.368 12.502 30.166 12.502 22.422-4.758 30.166-12.502 12.501-18.368 12.501-30.166zM341.334 341.333h-170.667v-170.666h170.667zM384 426.666c11.798 0 22.421-4.757 30.166-12.502s12.502-18.368 12.502-30.165-4.757-22.422-12.502-30.166-18.368-12.501-30.166-12.501h-42.666v42.666c0 11.797 4.757 22.421 12.502 30.166s18.368 12.501 30.166 12.501zM213.333 298.667v85.333c0 23.552-9.578 44.928-25.002 60.331s-36.779 25.002-60.331 25.002-44.928-9.579-60.331-25.002-25.002-36.779-25.002-60.331 9.578-44.928 25.002-60.33 36.779-25.002 60.331-25.002zM213.333 213.334h-85.334c-23.552 0-44.928-9.579-60.331-25.002s-25.002-36.779-25.002-60.331 9.578-44.928 25.002-60.331 36.778-25.002 60.331-25.002 44.928 9.579 60.33 25.002 25.002 36.779 25.002 60.331zM298.666 213.334v-85.334c0-23.552 9.579-44.928 25.002-60.331s36.779-25.002 60.331-25.002 44.928 9.579 60.331 25.002 25.002 36.779 25.002 60.331-9.579 44.928-25.002 60.331-36.779 25.002-60.331 25.002zM298.666 298.667v-85.334h-85.334v85.334zM384 469.334c-23.552 0-44.928-9.579-60.331-25.002s-25.002-36.779-25.002-60.331v-85.333h85.334c23.552 0 44.928 9.578 60.331 25.002s25.002 36.779 25.002 60.331-9.579 44.928-25.002 60.33-36.779 25.002-60.331 25.002z" />
<glyph unicode="&#xe946;" glyph-name="compass" d="M490.666 256c0 64.789-26.282 123.499-68.736 165.93s-101.142 68.736-165.93 68.736-123.499-26.282-165.93-68.736-68.736-101.142-68.736-165.93 26.282-123.499 68.736-165.93 101.142-68.736 165.93-68.736 123.499 26.282 165.93 68.736 68.736 101.142 68.736 165.93zM448 256c0-53.034-21.462-100.992-56.235-135.765s-82.731-56.235-135.766-56.235-100.992 21.462-135.766 56.235-56.234 82.731-56.234 135.765 21.462 100.992 56.234 135.766 82.731 56.234 135.766 56.234 100.992-21.462 135.766-56.234 56.235-82.731 56.235-135.766zM366.699 339.712c1.408 4.182 1.536 8.918 0 13.482-3.733 11.179-15.808 17.216-26.986 13.483l-135.68-45.226c-6.186-2.090-11.286-6.891-13.482-13.483l-45.227-135.68c-1.408-4.182-1.536-8.918 0-13.483 3.733-11.178 15.808-17.216 26.987-13.483l135.68 45.226c6.187 2.091 11.286 6.89 13.483 13.483zM312.726 312.726l-28.373-85.077-85.077-28.373 28.352 85.077z" />
<glyph unicode="&#xe947;" glyph-name="copy" d="M234.667 341.333c-17.664 0-33.707-7.189-45.248-18.752s-18.752-27.584-18.752-45.248v-192c0-17.664 7.19-33.707 18.752-45.248s27.584-18.752 45.248-18.752h192c17.664 0 33.707 7.19 45.248 18.752s18.752 27.584 18.752 45.248v192c0 17.664-7.19 33.707-18.752 45.248s-27.584 18.752-45.248 18.752zM234.667 298.667h192c5.888 0 11.2-2.368 15.082-6.25s6.25-9.195 6.25-15.083v-192c0-5.888-2.368-11.2-6.25-15.082s-9.195-6.25-15.082-6.25h-192c-5.888 0-11.2 2.368-15.083 6.25s-6.25 9.195-6.25 15.082v192c0 5.888 2.368 11.2 6.25 15.083s9.195 6.25 15.083 6.25zM106.666 213.334h-21.334c-5.888 0-11.2 2.368-15.082 6.25s-6.251 9.195-6.251 15.082v192c0 5.888 2.368 11.2 6.251 15.082s9.195 6.25 15.082 6.25h192c5.888 0 11.2-2.368 15.082-6.25s6.25-9.195 6.25-15.082v-21.334c0-11.776 9.558-21.333 21.334-21.333s21.334 9.558 21.334 21.333v21.334c0 17.664-7.19 33.707-18.752 45.248s-27.584 18.752-45.248 18.752h-192c-17.664 0-33.706-7.19-45.248-18.752s-18.752-27.584-18.752-45.248v-192c0-17.664 7.189-33.707 18.752-45.248s27.584-18.752 45.248-18.752h21.334c11.776 0 21.334 9.558 21.334 21.334s-9.558 21.334-21.334 21.334z" />
<glyph unicode="&#xe948;" glyph-name="corner-down-left" d="M405.334 426.666v-149.333c0-17.685-7.147-33.642-18.752-45.248s-27.563-18.752-45.248-18.752h-204.501l70.251 70.25c8.341 8.341 8.341 21.846 0 30.166s-21.846 8.341-30.166 0l-106.666-106.666c-1.963-1.962-3.541-4.31-4.629-6.912-3.2-7.723-1.664-16.96 4.63-23.253l106.666-106.666c8.341-8.341 21.846-8.341 30.166 0s8.341 21.846 0 30.166l-70.25 70.25h204.502c29.44 0 56.149 11.968 75.435 31.232s31.232 45.995 31.232 75.435v149.334c0 11.776-9.558 21.333-21.334 21.333s-21.334-9.558-21.334-21.333z" />
<glyph unicode="&#xe949;" glyph-name="corner-down-right" d="M64 426.666v-149.333c0-29.44 11.968-56.149 31.232-75.435s45.994-31.232 75.434-31.232h204.502l-70.25-70.25c-8.341-8.341-8.341-21.846 0-30.166s21.846-8.341 30.166 0l106.666 106.666c1.962 1.962 3.541 4.31 4.63 6.912 3.2 7.723 1.664 16.96-4.63 23.253l-106.666 106.666c-8.341 8.341-21.846 8.341-30.166 0s-8.341-21.846 0-30.166l70.25-70.25h-204.501c-17.685 0-33.643 7.147-45.248 18.752s-18.752 27.563-18.752 45.248v149.333c0 11.776-9.558 21.334-21.334 21.334s-21.334-9.558-21.334-21.334z" />
<glyph unicode="&#xe94a;" glyph-name="corner-left-down" d="M426.666 448h-149.334c-29.44 0-56.149-11.968-75.435-31.232s-31.232-45.995-31.232-75.435v-204.502l-70.251 70.25c-8.341 8.341-21.846 8.341-30.165 0s-8.341-21.846 0-30.166l106.667-106.666c1.963-1.962 4.31-3.541 6.912-4.63 5.226-2.154 11.114-2.154 16.341 0 2.518 1.046 4.864 2.582 6.912 4.63l106.666 106.666c8.341 8.341 8.341 21.846 0 30.166s-21.846 8.341-30.166 0l-70.25-70.25v204.501c0 17.686 7.147 33.643 18.752 45.248s27.563 18.752 45.248 18.752h149.333c11.776 0 21.334 9.558 21.334 21.334s-9.558 21.334-21.334 21.334z" />
<glyph unicode="&#xe94b;" glyph-name="corner-left-up" d="M426.666 106.666h-149.334c-17.685 0-33.642 7.147-45.248 18.752s-18.752 27.563-18.752 45.248v204.502l70.25-70.251c8.341-8.341 21.846-8.341 30.166 0s8.341 21.846 0 30.166l-106.666 106.666c-2.048 2.048-4.394 3.584-6.912 4.63s-5.269 1.621-8.171 1.621-5.654-0.576-8.171-1.621c-2.518-1.046-4.864-2.582-6.912-4.63l-106.666-106.666c-8.341-8.341-8.341-21.846 0-30.166s21.846-8.341 30.165 0l70.251 70.25v-204.502c0-29.44 11.968-56.149 31.232-75.435s45.994-31.232 75.434-31.232h149.333c11.776 0 21.334 9.558 21.334 21.334s-9.558 21.334-21.334 21.334z" />
<glyph unicode="&#xe94c;" glyph-name="corner-right-down" d="M85.334 405.333h149.333c17.685 0 33.642-7.146 45.248-18.752s18.752-27.563 18.752-45.248v-204.502l-70.25 70.25c-8.341 8.341-21.846 8.341-30.166 0s-8.341-21.846 0-30.166l106.666-106.666c1.962-1.962 4.31-3.541 6.912-4.63 5.226-2.154 11.115-2.154 16.341 0 2.517 1.046 4.864 2.582 6.912 4.63l106.666 106.666c8.341 8.341 8.341 21.846 0 30.166s-21.846 8.341-30.166 0l-70.25-70.25v204.501c0 29.44-11.968 56.149-31.232 75.435s-45.995 31.232-75.435 31.232h-149.333c-11.776 0-21.334-9.558-21.334-21.334s9.558-21.334 21.334-21.334z" />
<glyph unicode="&#xe94d;" glyph-name="corner-right-up" d="M85.334 64h149.333c29.44 0 56.149 11.968 75.435 31.232s31.232 45.995 31.232 75.435v204.502l70.25-70.251c8.341-8.341 21.846-8.341 30.166 0s8.341 21.846 0 30.166l-106.666 106.666c-1.962 1.963-4.31 3.541-6.912 4.63-7.723 3.2-16.96 1.664-23.253-4.63l-106.666-106.666c-8.341-8.341-8.341-21.846 0-30.166s21.846-8.341 30.166 0l70.25 70.25v-204.502c0-17.685-7.147-33.642-18.752-45.248s-27.563-18.752-45.248-18.752h-149.333c-11.776 0-21.334-9.558-21.334-21.334s9.558-21.334 21.334-21.334z" />
<glyph unicode="&#xe94e;" glyph-name="corner-up-left" d="M448 85.334v149.334c0 29.44-11.968 56.149-31.232 75.435s-45.995 31.232-75.435 31.232h-204.501l70.251 70.25c8.341 8.341 8.341 21.846 0 30.165s-21.846 8.341-30.166 0l-106.666-106.666c-2.048-2.048-3.584-4.394-4.629-6.912s-1.621-5.269-1.621-8.171 0.576-5.654 1.621-8.17c1.046-2.518 2.582-4.864 4.63-6.912l106.666-106.666c8.341-8.341 21.846-8.341 30.166 0s8.341 21.846 0 30.166l-70.25 70.25h204.502c17.685 0 33.642-7.147 45.248-18.752s18.752-27.563 18.752-45.248v-149.333c0-11.776 9.558-21.334 21.334-21.334s21.334 9.558 21.334 21.334z" />
<glyph unicode="&#xe94f;" glyph-name="corner-up-right" d="M106.666 85.334v149.334c0 17.685 7.147 33.642 18.752 45.248s27.563 18.752 45.248 18.752h204.502l-70.25-70.25c-8.341-8.341-8.341-21.846 0-30.166s21.846-8.341 30.166 0l106.666 106.666c1.962 1.962 3.541 4.31 4.63 6.912 2.154 5.226 2.154 11.114 0 16.341-1.046 2.517-2.582 4.864-4.63 6.912l-106.666 106.666c-8.341 8.341-21.846 8.341-30.166 0s-8.341-21.846 0-30.165l70.25-70.251h-204.501c-29.44 0-56.15-11.968-75.434-31.232s-31.232-45.994-31.232-75.434v-149.333c0-11.776 9.558-21.334 21.334-21.334s21.334 9.558 21.334 21.334z" />
<glyph unicode="&#xe950;" glyph-name="cpu" d="M128 405.333h256c5.888 0 11.2-2.368 15.082-6.25s6.25-9.194 6.25-15.082v-256c0-5.888-2.368-11.2-6.25-15.082s-9.195-6.25-15.082-6.25h-256c-5.888 0-11.2 2.368-15.082 6.25s-6.251 9.195-6.251 15.082v256c0 5.888 2.368 11.2 6.251 15.082s9.195 6.25 15.082 6.25zM192 341.333c-11.776 0-21.334-9.558-21.334-21.333v-128c0-11.776 9.558-21.334 21.334-21.334h128c11.776 0 21.334 9.558 21.334 21.334v128c0 11.776-9.558 21.334-21.334 21.334zM213.333 298.667h85.333v-85.334h-85.334zM21.334 192h42.666v-64c0-17.664 7.189-33.707 18.752-45.248s27.584-18.752 45.248-18.752h42.666v-42.666c0-11.776 9.558-21.334 21.334-21.334s21.334 9.558 21.334 21.334v42.666h85.334v-42.666c0-11.776 9.558-21.334 21.334-21.334s21.334 9.558 21.334 21.334v42.666h42.666c17.664 0 33.707 7.19 45.248 18.752s18.752 27.584 18.752 45.248v64h42.666c11.776 0 21.333 9.558 21.333 21.334s-9.558 21.334-21.334 21.334h-42.666v64h42.666c11.776 0 21.334 9.558 21.334 21.334s-9.558 21.334-21.334 21.334h-42.666v42.666c0 17.664-7.19 33.707-18.752 45.248s-27.584 18.752-45.248 18.752h-42.666v42.666c0 11.776-9.558 21.334-21.334 21.334s-21.334-9.558-21.334-21.334v-42.666h-85.334v42.666c0 11.776-9.558 21.334-21.334 21.334s-21.334-9.558-21.334-21.334v-42.666h-42.666c-17.664 0-33.706-7.19-45.248-18.752s-18.752-27.584-18.752-45.248v-42.667h-42.666c-11.776 0-21.334-9.558-21.334-21.334s9.557-21.334 21.334-21.334h42.666v-64h-42.666c-11.776 0-21.334-9.558-21.334-21.334s9.557-21.334 21.334-21.334z" />
<glyph unicode="&#xe951;" glyph-name="credit-card" d="M64 448c-17.664 0-33.706-7.19-45.248-18.752s-18.752-27.584-18.752-45.248v-256c0-17.664 7.189-33.707 18.752-45.248s27.584-18.752 45.248-18.752h384c17.664 0 33.707 7.19 45.248 18.752s18.752 27.584 18.752 45.248v256c0 17.664-7.19 33.707-18.752 45.248s-27.584 18.752-45.248 18.752zM469.334 320h-426.666v64c0 5.888 2.368 11.2 6.251 15.082s9.194 6.25 15.082 6.25h384c5.888 0 11.2-2.368 15.082-6.25s6.25-9.195 6.25-15.082zM42.666 277.333h426.666v-149.333c0-5.888-2.368-11.2-6.25-15.082s-9.195-6.25-15.082-6.25h-384c-5.888 0-11.2 2.368-15.082 6.25s-6.251 9.195-6.251 15.082z" />
<glyph unicode="&#xe952;" glyph-name="crop" d="M150.976 361.024l190.549 1.643c5.717 0 11.008-2.368 14.89-6.25s6.25-9.195 6.25-15.083v-192h-192c-5.888 0-11.2 2.368-15.083 6.25s-6.25 9.195-6.25 14.89zM21.526 359.894l86.784 0.746-1.642-189.781c0-17.856 7.189-33.877 18.752-45.44s27.584-18.752 45.248-18.752h192v-85.334c0-11.776 9.558-21.333 21.334-21.333s21.334 9.558 21.334 21.334v85.334h85.334c11.776 0 21.334 9.558 21.334 21.334s-9.558 21.334-21.334 21.334h-85.334v192c0 17.664-7.19 33.707-18.752 45.248s-27.584 18.752-45.44 18.752l-189.781-1.643 0.746 86.784c0.107 11.797-9.365 21.418-21.142 21.526s-21.418-9.366-21.525-21.142l-0.768-87.53-87.531-0.768c-11.776-0.106-21.248-9.728-21.142-21.525s9.728-21.248 21.526-21.142z" />
<glyph unicode="&#xe953;" glyph-name="crosshair" d="M490.666 256c0 64.789-26.282 123.499-68.736 165.93s-101.142 68.736-165.93 68.736-123.499-26.282-165.93-68.736-68.736-101.142-68.736-165.93 26.282-123.499 68.736-165.93 101.142-68.736 165.93-68.736 123.499 26.282 165.93 68.736 68.736 101.142 68.736 165.93zM277.334 65.173v62.827c0 11.776-9.558 21.334-21.334 21.334s-21.334-9.558-21.334-21.334v-62.827c-44.501 4.906-84.394 25.024-114.432 55.062s-50.154 69.93-55.062 114.432h62.827c11.776 0 21.333 9.558 21.333 21.334s-9.558 21.334-21.334 21.334h-62.826c4.906 44.501 25.024 84.394 55.061 114.432s69.93 50.154 114.432 55.061v-62.826c0-11.776 9.558-21.334 21.334-21.334s21.334 9.558 21.334 21.334v62.826c44.502-4.906 84.394-25.024 114.432-55.061s50.154-69.93 55.062-114.432h-62.827c-11.776 0-21.334-9.558-21.334-21.334s9.558-21.334 21.334-21.334h62.827c-4.906-44.502-25.024-84.394-55.062-114.432s-69.93-50.154-114.432-55.062z" />
<glyph unicode="&#xe954;" glyph-name="database" d="M85.334 405.29c0 0 0.064 2.027 4.544 6.144 5.227 4.8 14.314 10.304 27.862 15.574 31.978 12.48 81.514 20.992 138.261 20.992s106.283-8.512 138.283-20.992c13.526-5.269 22.635-10.773 27.861-15.574 4.373-4.032 4.522-5.994 4.522-6.144 0-0.064-0.149-2.026-4.544-6.058-5.226-4.8-14.315-10.304-27.861-15.573-31.978-12.48-81.514-20.992-138.262-20.992s-106.282 8.512-138.282 20.992c-13.525 5.269-22.635 10.774-27.862 15.573-4.438 4.096-4.522 6.058-4.522 6.058zM426.666 201.984v-95.382c-0.875-2.070-2.048-3.861-4.63-6.208-5.226-4.8-14.315-10.283-27.798-15.531-31.894-12.416-81.258-20.864-138.24-20.864s-106.346 8.448-138.24 20.864c-13.504 5.248-22.57 10.731-27.797 15.531-2.56 2.346-3.754 4.139-4.246 5.163l-0.128 96.298c5.29-2.688 10.88-5.163 16.683-7.424 38.336-14.912 93.376-23.765 153.728-23.765s115.392 8.853 153.728 23.765c5.909 2.304 11.584 4.8 16.938 7.552zM426.666 351.424v-95.21c0-0.085 0-0.171 0-0.277-0.875-2.070-2.048-3.861-4.63-6.208-5.226-4.8-14.315-10.283-27.798-15.531-31.894-12.416-81.258-20.864-138.24-20.864s-106.346 8.448-138.24 20.864c-13.504 5.248-22.57 10.731-27.797 15.531-2.56 2.346-3.754 4.139-4.246 5.163-0.022 0.853-0.085 1.685-0.192 2.496l-0.106 94.016c5.29-2.731 10.944-5.206 16.811-7.51 38.421-14.976 93.61-23.894 153.771-23.894s115.349 8.918 153.771 23.894c5.888 2.304 11.563 4.8 16.896 7.53zM42.666 405.333v-298.666c0-1.238 0.042-2.474 0.15-3.712 1.216-14.187 9.066-25.536 18.282-34.005 10.624-9.75 25.067-17.579 41.173-23.851 38.336-14.912 93.376-23.765 153.728-23.765s115.392 8.853 153.728 23.765c16.106 6.272 30.55 14.101 41.173 23.851 9.216 8.469 17.067 19.818 18.282 34.005 0.106 1.238 0.149 2.474 0.149 3.712v298.666c0 1.195-0.043 2.389-0.149 3.584-1.173 14.165-9.002 25.493-18.176 33.92-10.624 9.792-25.11 17.642-41.238 23.936-38.421 14.976-93.611 23.894-153.77 23.894s-115.35-8.918-153.77-23.894c-16.128-6.293-30.614-14.166-41.237-23.936-9.174-8.427-17.002-19.776-18.176-33.92-0.106-1.195-0.15-2.389-0.15-3.584z" />
<glyph unicode="&#xe955;" glyph-name="delete" d="M448 405.333c5.888 0 11.2-2.368 15.082-6.25s6.25-9.194 6.25-15.082v-256c0-5.888-2.368-11.2-6.25-15.082s-9.195-6.25-15.082-6.25h-267.648l-130.667 149.333 130.667 149.334zM448 448h-277.334c-6.4 0-12.118-2.816-16.064-7.274l-149.333-170.667c-7.104-8.106-6.955-20.096 0-28.096l149.333-170.667c4.224-4.822 10.112-7.274 16.064-7.296h277.334c17.664 0 33.707 7.19 45.248 18.752s18.752 27.584 18.752 45.248v256c0 17.664-7.19 33.707-18.752 45.248s-27.584 18.752-45.248 18.752zM240.917 304.918l48.917-48.918-48.917-48.918c-8.341-8.341-8.341-21.846 0-30.166s21.845-8.341 30.165 0l48.918 48.918 48.918-48.918c8.341-8.341 21.846-8.341 30.166 0s8.341 21.846 0 30.166l-48.918 48.918 48.918 48.918c8.341 8.341 8.341 21.845 0 30.165s-21.846 8.341-30.166 0l-48.918-48.917-48.918 48.917c-8.341 8.341-21.846 8.341-30.166 0s-8.341-21.845 0-30.165z" />
<glyph unicode="&#xe956;" glyph-name="disc" d="M490.666 256c0 64.789-26.282 123.499-68.736 165.93s-101.142 68.736-165.93 68.736-123.499-26.282-165.93-68.736-68.736-101.142-68.736-165.93 26.282-123.499 68.736-165.93 101.142-68.736 165.93-68.736 123.499 26.282 165.93 68.736 68.736 101.142 68.736 165.93zM448 256c0-53.034-21.462-100.992-56.235-135.765s-82.731-56.235-135.766-56.235-100.992 21.462-135.766 56.235-56.234 82.731-56.234 135.765 21.462 100.992 56.234 135.766 82.731 56.234 135.766 56.234 100.992-21.462 135.766-56.234 56.235-82.731 56.235-135.766zM341.334 256c0 23.552-9.579 44.928-25.002 60.331s-36.779 25.002-60.331 25.002-44.928-9.578-60.331-25.002-25.002-36.779-25.002-60.331 9.578-44.928 25.002-60.331 36.779-25.002 60.331-25.002 44.928 9.579 60.331 25.002 25.002 36.779 25.002 60.331zM298.666 256c0-11.798-4.757-22.421-12.502-30.166s-18.368-12.502-30.166-12.502-22.422 4.757-30.166 12.502-12.501 18.368-12.501 30.166 4.757 22.422 12.501 30.166 18.368 12.502 30.166 12.502 22.421-4.758 30.166-12.502 12.502-18.368 12.502-30.166z" />
<glyph unicode="&#xe957;" glyph-name="dollar-sign" d="M234.667 277.333h-32c-14.742 0-28.032 5.952-37.718 15.616s-15.616 22.976-15.616 37.718 5.952 28.032 15.616 37.717 22.976 15.616 37.718 15.616h32zM277.334 234.666h32c14.741 0 28.032-5.952 37.718-15.616s15.616-22.976 15.616-37.718-5.952-28.032-15.616-37.717-22.976-15.616-37.717-15.616h-32zM362.666 426.666h-85.334v64c0 11.776-9.558 21.334-21.334 21.334s-21.334-9.558-21.334-21.334v-64h-32c-26.496 0-50.538-10.773-67.882-28.118s-28.118-41.386-28.118-67.882 10.773-50.538 28.118-67.883 41.387-28.117 67.882-28.117h32v-106.666h-106.666c-11.776 0-21.334-9.558-21.334-21.334s9.558-21.334 21.334-21.334h106.666v-64c0-11.776 9.558-21.334 21.334-21.334s21.334 9.558 21.334 21.334v64h32c26.496 0 50.538 10.774 67.882 28.118s28.118 41.387 28.118 67.882-10.774 50.538-28.118 67.882-41.387 28.118-67.882 28.118h-32v106.666h85.334c11.776 0 21.334 9.558 21.334 21.333s-9.558 21.334-21.334 21.334z" />
<glyph unicode="&#xe958;" glyph-name="download" d="M426.666 192v-85.334c0-5.888-2.368-11.2-6.25-15.082s-9.195-6.25-15.082-6.25h-298.666c-5.888 0-11.2 2.368-15.082 6.25s-6.251 9.195-6.251 15.082v85.334c0 11.776-9.558 21.334-21.334 21.334s-21.334-9.558-21.334-21.334v-85.334c0-17.664 7.19-33.707 18.752-45.248s27.584-18.752 45.248-18.752h298.666c17.664 0 33.707 7.19 45.248 18.752s18.752 27.584 18.752 45.248v85.334c0 11.776-9.558 21.334-21.334 21.334s-21.334-9.558-21.334-21.334zM277.334 243.498v204.501c0 11.776-9.558 21.334-21.334 21.334s-21.334-9.558-21.334-21.334v-204.501l-70.25 70.25c-8.341 8.341-21.846 8.341-30.166 0s-8.341-21.846 0-30.166l106.666-106.666c1.963-1.962 4.31-3.541 6.912-4.63s5.398-1.622 8.171-1.622c5.461 0 10.922 2.091 15.083 6.25l106.666 106.666c8.341 8.341 8.341 21.846 0 30.166s-21.846 8.341-30.166 0z" />
<glyph unicode="&#xe959;" glyph-name="download-cloud" d="M234.667 256v-140.501l-48.917 48.918c-8.341 8.341-21.846 8.341-30.166 0s-8.341-21.846 0-30.166l85.334-85.334c1.963-1.962 4.31-3.541 6.912-4.63 5.226-2.154 11.114-2.154 16.342 0 2.517 1.046 4.864 2.582 6.912 4.63l85.334 85.334c8.341 8.341 8.341 21.846 0 30.166s-21.846 8.341-30.166 0l-48.918-48.918v140.501c0 11.776-9.558 21.334-21.334 21.334s-21.334-9.558-21.334-21.334zM457.707 108.63c28.906 20.331 46.848 50.496 52.48 82.731s-1.067 66.688-21.397 95.594c-17.6 25.046-42.624 41.877-70.123 49.579-11.221 3.136-22.87 4.757-34.582 4.8h-11.158c-15.402 43.904-45.589 79.147-83.35 101.504-42.262 25.002-94.123 33.899-145.472 20.736s-92.544-45.973-117.546-88.234-33.898-94.123-20.736-145.472c7.915-30.848 22.933-58.134 42.304-79.659 7.894-8.747 21.376-9.472 30.123-1.579s9.472 21.376 1.579 30.123c-14.763 16.406-26.496 37.546-32.704 61.717-10.261 39.957-3.349 80.235 16.128 113.152s51.456 58.368 91.413 68.608 80.234 3.35 113.152-16.128 58.368-51.456 68.608-91.413c2.474-9.28 10.795-16.022 20.694-16.022h26.794c7.894-0.022 15.723-1.11 23.253-3.221 18.368-5.142 34.966-16.32 46.72-33.024 13.568-19.286 18.026-42.197 14.272-63.744s-15.702-41.6-34.986-55.147c-9.642-6.784-11.947-20.075-5.184-29.718s20.075-11.947 29.717-5.184z" />
<glyph unicode="&#xe95a;" glyph-name="droplet" d="M271.082 469.696c-8.341 8.341-21.867 8.32-30.186-0.022l-120.597-120.81c-37.483-37.504-56.214-86.678-56.192-135.786s18.773-98.283 56.278-135.744c37.462-37.44 86.592-56.171 135.637-56.192 49.238 0.022 98.411 18.794 135.894 56.278 37.44 37.462 56.171 86.592 56.192 135.637-0.022 49.258-18.794 98.411-56.278 135.872zM256.022 424.427l105.642-105.643c29.184-29.163 43.776-67.328 43.776-105.579s-14.55-76.438-43.712-105.6-67.328-43.755-105.579-43.776-76.438 14.55-105.6 43.712-43.755 67.328-43.776 105.579 14.549 76.438 43.712 105.6z" />
<glyph unicode="&#xe95b;" glyph-name="edit" d="M234.667 448h-149.333c-17.664 0-33.706-7.19-45.248-18.752s-18.752-27.584-18.752-45.248v-298.666c0-17.664 7.189-33.707 18.752-45.248s27.584-18.752 45.248-18.752h298.666c17.664 0 33.707 7.19 45.248 18.752s18.752 27.584 18.752 45.248v149.334c0 11.776-9.558 21.334-21.334 21.334s-21.334-9.558-21.334-21.334v-149.333c0-5.888-2.368-11.2-6.25-15.082s-9.195-6.25-15.082-6.25h-298.666c-5.888 0-11.2 2.368-15.082 6.25s-6.251 9.195-6.251 15.082v298.666c0 5.888 2.368 11.2 6.251 15.082s9.195 6.251 15.082 6.251h149.333c11.776 0 21.333 9.558 21.333 21.333s-9.558 21.334-21.334 21.334zM379.584 473.75l-202.667-202.667c-2.602-2.582-4.63-5.974-5.611-9.92l-21.333-85.334c-0.832-3.2-0.896-6.784 0-10.346 2.858-11.435 14.442-18.389 25.877-15.531l85.334 21.334c3.563 0.875 7.040 2.752 9.92 5.611l202.667 202.666c12.992 12.992 19.498 30.080 19.498 47.083s-6.507 34.090-19.498 47.082-30.101 19.52-47.104 19.52-34.091-6.507-47.082-19.499zM409.75 443.584c4.672 4.672 10.752 6.998 16.918 6.998s12.245-2.326 16.918-6.998 6.998-10.752 6.998-16.918-2.325-12.245-6.998-16.917l-198.486-198.486-45.099-11.286 11.286 45.099z" />
<glyph unicode="&#xe95c;" glyph-name="edit-2" d="M347.584 463.082l-288-288c-2.496-2.474-4.48-5.717-5.504-9.472l-32-117.334c-0.982-3.478-1.046-7.382 0-11.221 3.093-11.37 14.827-18.070 26.197-14.976l117.333 32c3.392 0.896 6.72 2.752 9.472 5.504l288 288c15.936 15.936 23.914 36.886 23.914 57.749s-7.978 41.814-23.914 57.75-36.885 23.915-57.75 23.915-41.813-7.978-57.75-23.915zM377.75 432.918c7.616 7.616 17.579 11.413 27.584 11.413s19.968-3.798 27.584-11.435 11.413-17.558 11.413-27.563-3.798-19.968-11.413-27.584l-283.99-283.99-75.862-20.693 20.694 75.84z" />
<glyph unicode="&#xe95d;" glyph-name="edit-3" d="M256 64h192c11.776 0 21.334 9.558 21.334 21.334s-9.558 21.334-21.334 21.334h-192c-11.776 0-21.334-9.558-21.334-21.334s9.558-21.334 21.334-21.334zM336.918 452.416l-266.666-266.666c-2.603-2.582-4.63-5.974-5.611-9.92l-21.334-85.334c-0.832-3.2-0.896-6.784 0-10.346 2.858-11.435 14.443-18.389 25.877-15.531l85.334 21.334c3.563 0.875 7.040 2.752 9.92 5.611l266.667 266.666c12.992 12.992 19.498 30.080 19.498 47.083s-6.507 34.090-19.498 47.082-30.101 19.52-47.104 19.52-34.091-6.507-47.082-19.498zM367.082 422.25c4.672 4.672 10.752 6.998 16.918 6.998s12.245-2.325 16.918-6.998 6.998-10.752 6.998-16.918-2.325-12.245-6.998-16.918l-262.486-262.485-45.12-11.286 11.285 45.12z" />
<glyph unicode="&#xe95e;" glyph-name="external-link" d="M362.666 234.666v-128c0-5.888-2.368-11.2-6.25-15.082s-9.195-6.25-15.082-6.25h-234.667c-5.888 0-11.2 2.368-15.082 6.25s-6.251 9.195-6.251 15.082v234.666c0 5.888 2.368 11.2 6.251 15.083s9.195 6.25 15.082 6.25h128c11.776 0 21.333 9.558 21.333 21.334s-9.558 21.333-21.334 21.333h-128c-17.664 0-33.707-7.189-45.248-18.752s-18.752-27.584-18.752-45.248v-234.666c0-17.664 7.19-33.707 18.752-45.248s27.584-18.752 45.248-18.752h234.666c17.664 0 33.707 7.19 45.248 18.752s18.752 27.584 18.752 45.248v128c0 11.776-9.558 21.334-21.334 21.334s-21.334-9.558-21.334-21.334zM228.416 198.25l198.25 198.25v-76.501c0-11.776 9.558-21.334 21.334-21.334s21.334 9.558 21.334 21.334v128c0 2.901-0.576 5.654-1.622 8.171s-2.582 4.864-4.608 6.89c-0.022 0.022-0.022 0.022-0.043 0.043-1.962 1.962-4.31 3.541-6.89 4.608-2.517 1.046-5.269 1.621-8.171 1.621h-128c-11.776 0-21.334-9.558-21.334-21.333s9.558-21.334 21.334-21.334h76.501l-198.25-198.25c-8.341-8.341-8.341-21.846 0-30.166s21.846-8.341 30.166 0z" />
<glyph unicode="&#xe95f;" glyph-name="eye" d="M2.261 265.536c-2.901-5.845-3.115-12.864 0-19.072 0 0 8.448-16.832 23.894-39.317 9.621-13.995 22.144-30.55 37.483-47.317 19.072-20.885 42.752-42.389 70.805-59.733 34.026-21.034 74.794-36.096 121.558-36.096s87.531 15.062 121.558 36.096c28.053 17.344 51.733 38.848 70.805 59.733 15.317 16.768 27.861 33.322 37.483 47.317 15.445 22.486 23.894 39.317 23.894 39.317 2.902 5.846 3.115 12.864 0 19.072 0 0-8.448 16.832-23.894 39.317-9.622 13.994-22.144 30.55-37.483 47.317-19.072 20.886-42.752 42.389-70.805 59.733-34.026 21.034-74.794 36.096-121.558 36.096s-87.531-15.062-121.558-36.096c-28.053-17.344-51.733-38.848-70.805-59.733-15.338-16.768-27.861-33.301-37.483-47.317-15.445-22.486-23.893-39.317-23.893-39.317zM45.654 256c3.477 5.995 8.682 14.528 15.658 24.704 8.746 12.714 20.053 27.648 33.813 42.688 17.174 18.795 37.867 37.462 61.738 52.224 28.8 17.792 61.888 29.717 99.136 29.717s70.336-11.925 99.114-29.717c23.872-14.762 44.565-33.429 61.738-52.224 13.738-15.040 25.067-29.974 33.813-42.688 6.998-10.176 12.202-18.688 15.659-24.704-3.478-5.995-8.683-14.528-15.659-24.704-8.747-12.714-20.053-27.648-33.813-42.688-17.173-18.795-37.866-37.462-61.738-52.224-28.779-17.792-61.867-29.717-99.115-29.717s-70.336 11.925-99.115 29.717c-23.872 14.762-44.566 33.43-61.739 52.224-13.739 15.040-25.067 29.974-33.813 42.688-6.998 10.176-12.203 18.709-15.68 24.704zM341.334 256c0 23.552-9.579 44.928-25.002 60.331s-36.779 25.002-60.331 25.002-44.928-9.578-60.331-25.002-25.002-36.779-25.002-60.331 9.578-44.928 25.002-60.331 36.779-25.002 60.331-25.002 44.928 9.579 60.331 25.002 25.002 36.779 25.002 60.331zM298.666 256c0-11.798-4.757-22.421-12.502-30.166s-18.368-12.502-30.166-12.502-22.422 4.757-30.166 12.502-12.501 18.368-12.501 30.166 4.757 22.422 12.501 30.166 18.368 12.502 30.166 12.502 22.421-4.758 30.166-12.502 12.502-18.368 12.502-30.166z" />
<glyph unicode="&#xe960;" glyph-name="eye-off" d="M216.064 400.768c13.888 3.242 27.648 4.714 39.68 4.565 37.504 0 70.592-11.925 99.371-29.717 23.872-14.762 44.565-33.429 61.738-52.224 13.738-15.040 25.067-29.974 33.813-42.688 6.976-10.133 12.16-18.646 15.637-24.64-11.648-20.33-24.747-38.848-37.93-54.229-7.659-8.938-6.635-22.421 2.304-30.080s22.421-6.635 30.080 2.304c17.45 20.352 34.368 45.056 48.704 71.894 3.157 5.952 3.478 13.184 0.277 19.606 0 0-8.448 16.832-23.894 39.317-9.622 13.994-22.144 30.55-37.483 47.317-19.072 20.886-42.752 42.389-70.805 59.733-34.026 21.014-74.794 36.075-121.302 36.075-15.659 0.192-32.853-1.685-49.92-5.675-11.477-2.688-18.602-14.165-15.915-25.642s14.166-18.603 25.643-15.915zM213.91 267.904l53.994-53.995c-3.882-1.301-7.936-2.005-12.011-2.154-10.944-0.384-21.974 3.392-30.592 11.435s-13.162 18.774-13.547 29.718c-0.171 5.077 0.534 10.154 2.155 15.019zM127.638 354.197l54.464-54.464c-9.258-14.742-13.568-31.659-12.97-48.341 0.768-21.803 9.877-43.37 27.114-59.413s39.382-23.616 61.184-22.848c14.762 0.512 29.418 4.864 42.325 12.971l49.536-49.536c-29.397-17.046-61.76-25.514-93.525-25.899-36.992 0-70.080 11.925-98.859 29.718-23.872 14.762-44.566 33.43-61.739 52.224-13.739 15.040-25.067 29.974-33.813 42.688-6.955 10.134-12.16 18.624-15.616 24.618 22.4 38.87 50.688 72.086 81.942 98.283zM6.25 475.584l91.115-91.115c-36.928-31.552-69.739-71.637-94.826-118.378-3.158-5.952-3.498-13.206-0.277-19.627 0 0 8.448-16.832 23.893-39.317 9.621-13.995 22.144-30.55 37.483-47.317 19.072-20.885 42.752-42.389 70.805-59.733 34.026-21.034 74.794-36.096 121.813-36.096 42.517 0.512 85.738 12.822 124.053 37.526l95.274-95.274c8.341-8.342 21.846-8.342 30.166 0s8.342 21.846 0 30.166l-189.354 189.355c-0.043 0.043-0.106 0.106-0.149 0.149l-89.792 89.813c-0.171 0.149-0.341 0.341-0.512 0.512l-189.525 189.504c-8.341 8.341-21.846 8.341-30.166 0s-8.341-21.846 0-30.166z" />
<glyph unicode="&#xe961;" glyph-name="facebook" d="M362.666 448v-42.667h-42.666c-11.776 0-22.464-4.8-30.166-12.501s-12.502-18.389-12.502-30.166v-64c0-11.776 9.558-21.334 21.334-21.334h58.005l-10.666-42.666h-47.339c-11.776 0-21.334-9.558-21.334-21.334v-149.333h-42.666v149.333c0 11.776-9.558 21.334-21.334 21.334h-42.666v42.666h42.666c11.776 0 21.334 9.558 21.334 21.334v64c0 23.574 9.536 44.864 25.002 60.33s36.757 25.002 60.331 25.002zM384 490.666h-64c-35.349 0-67.37-14.358-90.517-37.483s-37.483-55.168-37.483-90.517v-42.666h-42.666c-11.776 0-21.334-9.558-21.334-21.334v-85.334c0-11.776 9.558-21.334 21.334-21.334h42.666v-149.334c0-11.776 9.558-21.334 21.334-21.334h85.334c11.776 0 21.334 9.558 21.334 21.334v149.333h42.666c9.942 0 18.304 6.805 20.693 16.149l21.334 85.334c2.858 11.435-4.096 23.018-15.531 25.877-1.771 0.448-3.563 0.661-5.163 0.64h-64v42.666h64c11.776 0 21.334 9.558 21.334 21.334v85.334c0 11.776-9.558 21.333-21.334 21.333z" />
<glyph unicode="&#xe962;" glyph-name="fast-forward" d="M298.666 150.293v211.413l135.915-105.707zM64 150.293v211.413l135.915-105.707zM55.766 89.834l192 149.334c5.355 4.16 8.171 10.368 8.234 16.64v-149.142c0-11.776 9.558-21.334 21.334-21.334 4.95 0 9.514 1.685 13.099 4.502l192 149.334c9.301 7.232 10.966 20.63 3.733 29.93-1.152 1.472-2.454 2.752-3.733 3.733l-192 149.333c-9.301 7.232-22.699 5.568-29.93-3.733-3.050-3.925-4.523-8.555-4.502-13.099v-149.12c-0.042 4.501-1.514 9.046-4.501 12.885-1.152 1.472-2.453 2.752-3.733 3.734l-192 149.333c-9.302 7.232-22.698 5.568-29.93-3.734-3.050-3.925-4.523-8.554-4.502-13.098v-298.666c0-11.776 9.558-21.334 21.333-21.334 4.95 0 9.514 1.685 13.099 4.502z" />
<glyph unicode="&#xe963;" glyph-name="feather" d="M386.368 175.104c1.472 1.13 2.774 2.454 3.904 3.925l56.598 56.768c29.163 29.163 43.755 67.435 43.755 105.642s-14.592 76.48-43.755 105.642-67.435 43.755-105.642 43.755-76.48-14.592-105.642-43.755l-144-144c-4.16-4.16-6.251-9.621-6.251-15.082v-172.502l-57.749-57.75c-8.341-8.341-8.341-21.846 0-30.166s21.846-8.341 30.166 0l57.749 57.75h172.501c5.909 0 11.243 2.389 15.104 6.272zM200.832 170.666h120.853l-42.538-42.666h-120.981zM364.224 213.334h-120.726l112.918 112.918c8.341 8.341 8.341 21.846 0 30.166s-21.846 8.341-30.166 0l-198.25-198.25v121.002l137.75 137.75c20.842 20.843 48.128 31.253 75.478 31.253s54.635-10.41 75.478-31.253 31.253-48.128 31.253-75.478-10.411-54.635-31.253-75.478z" />
<glyph unicode="&#xe964;" glyph-name="figma" d="M277.334 245.334c0 14.742 5.952 28.032 15.616 37.718s22.976 15.616 37.718 15.616 28.032-5.952 37.717-15.616 15.616-22.976 15.616-37.717-5.952-28.032-15.616-37.717-22.976-15.616-37.717-15.616-28.032 5.952-37.717 15.616-15.616 22.976-15.616 37.717zM181.333 341.333c-14.742 0-28.032 5.952-37.718 15.616s-15.616 22.976-15.616 37.718 5.952 28.032 15.616 37.717 22.976 15.616 37.718 15.616h53.333v-106.666zM277.334 341.333v106.667h53.334c14.741 0 28.032-5.952 37.717-15.616s15.616-22.976 15.616-37.718-5.952-28.032-15.616-37.718-22.976-15.616-37.717-15.616zM234.667 149.334v-53.334c0-14.741-5.952-28.032-15.616-37.717s-22.976-15.616-37.718-15.616-28.032 5.952-37.718 15.616-15.616 22.976-15.616 37.717 5.952 28.032 15.616 37.717 22.976 15.616 37.718 15.616zM85.334 245.334c0-26.496 10.773-50.538 28.117-67.882 2.389-2.389 4.906-4.651 7.531-6.784-2.624-2.134-5.141-4.394-7.531-6.784-17.344-17.344-28.118-41.387-28.118-67.882s10.773-50.538 28.118-67.882 41.386-28.118 67.882-28.118 50.538 10.774 67.882 28.118 28.117 41.387 28.117 67.882v69.504c15.253-10.197 33.6-16.171 53.334-16.171 26.496 0 50.538 10.774 67.882 28.118s28.118 41.387 28.118 67.882-10.774 50.538-28.118 67.882c-2.389 2.389-4.906 4.651-7.531 6.784 2.624 2.133 5.142 4.394 7.531 6.784 17.344 17.344 28.118 41.387 28.118 67.882s-10.774 50.538-28.118 67.882-41.387 28.118-67.882 28.118h-149.333c-26.496 0-50.538-10.774-67.882-28.118s-28.118-41.387-28.118-67.882 10.773-50.538 28.118-67.882c2.389-2.389 4.906-4.651 7.531-6.784-2.624-2.133-5.141-4.394-7.531-6.784-17.344-17.344-28.118-41.387-28.118-67.882zM128 245.334c0 14.742 5.952 28.032 15.616 37.718s22.976 15.616 37.718 15.616h53.333v-106.666h-53.334c-14.742 0-28.032 5.952-37.718 15.616s-15.616 22.976-15.616 37.718z" />
<glyph unicode="&#xe965;" glyph-name="file" d="M375.168 341.333h-76.501v76.502zM441.75 335.082l-149.333 149.334c-1.962 1.962-4.31 3.541-6.912 4.63s-5.397 1.621-8.171 1.621h-149.333c-17.664 0-33.707-7.19-45.248-18.752s-18.752-27.584-18.752-45.248v-341.334c0-17.664 7.189-33.707 18.752-45.248s27.584-18.752 45.248-18.752h256c17.664 0 33.707 7.19 45.248 18.752s18.752 27.584 18.752 45.248v234.667c0 5.888-2.389 11.221-6.25 15.082zM256 448v-128c0-11.776 9.558-21.334 21.334-21.334h128v-213.334c0-5.888-2.368-11.2-6.25-15.082s-9.195-6.25-15.082-6.25h-256c-5.888 0-11.2 2.368-15.082 6.25s-6.251 9.195-6.251 15.082v341.334c0 5.888 2.368 11.2 6.251 15.082s9.195 6.25 15.082 6.25z" />
<glyph unicode="&#xe966;" glyph-name="file-minus" d="M375.168 362.667h-55.168v55.168zM441.75 356.416l-128 128c-1.962 1.962-4.31 3.541-6.912 4.63s-5.397 1.621-8.171 1.621h-170.667c-17.664 0-33.707-7.19-45.248-18.752s-18.752-27.584-18.752-45.248v-341.334c0-17.664 7.189-33.707 18.752-45.248s27.584-18.752 45.248-18.752h256c17.664 0 33.707 7.19 45.248 18.752s18.752 27.584 18.752 45.248v256c0 5.888-2.389 11.221-6.25 15.082zM277.334 448v-106.666c0-11.776 9.558-21.334 21.334-21.334h106.666v-234.667c0-5.888-2.368-11.2-6.25-15.082s-9.195-6.25-15.082-6.25h-256c-5.888 0-11.2 2.368-15.082 6.25s-6.251 9.195-6.251 15.082v341.334c0 5.888 2.368 11.2 6.251 15.082s9.195 6.25 15.082 6.25zM192 170.666h128c11.776 0 21.334 9.558 21.334 21.334s-9.558 21.334-21.334 21.334h-128c-11.776 0-21.334-9.558-21.334-21.334s9.558-21.334 21.334-21.334z" />
<glyph unicode="&#xe967;" glyph-name="file-plus" d="M375.168 362.667h-55.168v55.168zM441.75 356.416l-128 128c-1.962 1.962-4.31 3.541-6.912 4.63s-5.397 1.621-8.171 1.621h-170.667c-17.664 0-33.707-7.19-45.248-18.752s-18.752-27.584-18.752-45.248v-341.334c0-17.664 7.189-33.707 18.752-45.248s27.584-18.752 45.248-18.752h256c17.664 0 33.707 7.19 45.248 18.752s18.752 27.584 18.752 45.248v256c0 5.888-2.389 11.221-6.25 15.082zM277.334 448v-106.666c0-11.776 9.558-21.334 21.334-21.334h106.666v-234.667c0-5.888-2.368-11.2-6.25-15.082s-9.195-6.25-15.082-6.25h-256c-5.888 0-11.2 2.368-15.082 6.25s-6.251 9.195-6.251 15.082v341.334c0 5.888 2.368 11.2 6.251 15.082s9.195 6.25 15.082 6.25zM192 170.666h42.666v-42.666c0-11.776 9.558-21.334 21.334-21.334s21.334 9.558 21.334 21.334v42.666h42.666c11.776 0 21.334 9.558 21.334 21.334s-9.558 21.334-21.334 21.334h-42.666v42.666c0 11.776-9.558 21.334-21.334 21.334s-21.334-9.558-21.334-21.334v-42.666h-42.666c-11.776 0-21.334-9.558-21.334-21.334s9.558-21.334 21.334-21.334z" />
<glyph unicode="&#xe968;" glyph-name="file-text" d="M375.168 362.667h-55.168v55.168zM441.75 356.416l-128 128c-1.962 1.962-4.31 3.541-6.912 4.63s-5.397 1.621-8.171 1.621h-170.667c-17.664 0-33.707-7.19-45.248-18.752s-18.752-27.584-18.752-45.248v-341.334c0-17.664 7.189-33.707 18.752-45.248s27.584-18.752 45.248-18.752h256c17.664 0 33.707 7.19 45.248 18.752s18.752 27.584 18.752 45.248v256c0 5.888-2.389 11.221-6.25 15.082zM277.334 448v-106.666c0-11.776 9.558-21.334 21.334-21.334h106.666v-234.667c0-5.888-2.368-11.2-6.25-15.082s-9.195-6.25-15.082-6.25h-256c-5.888 0-11.2 2.368-15.082 6.25s-6.251 9.195-6.251 15.082v341.334c0 5.888 2.368 11.2 6.251 15.082s9.195 6.25 15.082 6.25zM341.334 256h-170.667c-11.776 0-21.333-9.558-21.333-21.334s9.558-21.334 21.334-21.334h170.667c11.776 0 21.334 9.558 21.334 21.334s-9.558 21.334-21.334 21.334zM341.334 170.666h-170.667c-11.776 0-21.333-9.558-21.333-21.334s9.558-21.334 21.334-21.334h170.667c11.776 0 21.334 9.558 21.334 21.334s-9.558 21.334-21.334 21.334zM213.333 341.333h-42.667c-11.776 0-21.334-9.558-21.334-21.333s9.558-21.334 21.334-21.334h42.666c11.776 0 21.334 9.558 21.334 21.334s-9.558 21.334-21.334 21.334z" />
<glyph unicode="&#xe969;" glyph-name="film" d="M341.334 277.333h-170.667v170.667h170.667zM170.667 234.666h170.667v-170.666h-170.667zM128 384h-64v38.827c0 6.954 2.794 13.226 7.382 17.792s10.838 7.382 17.792 7.382h38.826zM64 341.333h64v-64h-64zM128 170.666h-64v64h64zM64 128h64v-64h-38.827c-6.954 0-13.227 2.795-17.792 7.382s-7.382 10.837-7.382 17.792zM448 170.666h-64v64h64zM384 128h64v-38.827c0-6.954-2.795-13.226-7.382-17.792s-10.837-7.382-17.792-7.382h-38.827zM448 384h-64v64h38.827c6.954 0 13.226-2.795 17.792-7.382s7.382-10.838 7.382-17.792zM490.666 362.667v60.16c0 18.731-7.616 35.712-19.861 47.978s-29.248 19.861-47.978 19.861h-333.654c-18.731 0-35.712-7.616-47.978-19.861s-19.861-29.248-19.861-47.978v-333.654c0-18.731 7.616-35.712 19.861-47.978s29.248-19.861 47.978-19.861h333.654c18.731 0 35.712 7.616 47.978 19.861s19.861 29.248 19.861 47.978zM384 341.333h64v-64h-64z" />
<glyph unicode="&#xe96a;" glyph-name="filter" d="M423.36 426.666l-140.992-166.698c-3.136-3.69-5.034-8.512-5.034-13.781v-147.669l-42.666 21.334v126.336c0.022 4.842-1.643 9.75-5.035 13.781l-140.992 166.698zM469.334 469.334h-426.666c-11.776 0-21.334-9.558-21.334-21.334 0-5.269 1.898-10.091 5.035-13.781l165.632-195.84v-131.712c0-8.298 4.736-15.51 11.797-19.072l85.334-42.666c10.538-5.269 23.36-1.002 28.63 9.536 1.536 3.115 2.262 6.421 2.24 9.536v174.378l165.632 195.84c7.616 9.002 6.486 22.464-2.517 30.058-4.032 3.413-8.938 5.077-13.781 5.056z" />
<glyph unicode="&#xe96b;" glyph-name="flag" d="M106.666 226.197v210.326c9.386 4.65 29.12 11.477 64 11.477 27.328 0 50.368-8.981 77.418-19.798 26.282-10.517 56.576-22.87 93.248-22.87 27.69 0 48.597 3.734 64 8.47v-210.326c-9.387-4.651-29.12-11.478-64-11.478-27.328 0-50.368 8.981-77.418 19.798-26.282 10.517-56.576 22.87-93.248 22.87-27.69 0-48.597-3.733-64-8.469zM106.666 42.666v137.856c9.386 4.651 29.12 11.478 64 11.478 27.328 0 50.368-8.981 77.418-19.798 26.282-10.517 56.576-22.87 93.248-22.87 69.269 0 96.149 23.317 100.416 27.584 4.16 4.16 6.25 9.622 6.25 15.082v256c0 11.776-9.558 21.334-21.334 21.334-5.654 0-10.794-2.197-14.613-5.803-2.048-1.664-20.992-15.531-70.72-15.531-27.328 0-50.368 8.981-77.418 19.798-26.282 10.517-56.576 22.87-93.248 22.87-69.269 0-96.15-23.318-100.416-27.584-4.16-4.16-6.251-9.622-6.251-15.083v-405.334c0-11.776 9.558-21.334 21.334-21.334s21.334 9.558 21.334 21.334z" />
<glyph unicode="&#xe96c;" glyph-name="folder" d="M490.666 106.666v234.666c0 17.664-7.19 33.707-18.752 45.248s-27.584 18.752-45.248 18.752h-180.587l-36.331 54.507c-3.882 5.76-10.368 9.493-17.75 9.493h-106.666c-17.664 0-33.706-7.19-45.248-18.752s-18.752-27.584-18.752-45.248v-298.666c0-17.664 7.189-33.707 18.752-45.248s27.584-18.752 45.248-18.752h341.334c17.664 0 33.707 7.19 45.248 18.752s18.752 27.584 18.752 45.248zM448 106.666c0-5.888-2.368-11.2-6.25-15.082s-9.195-6.25-15.082-6.25h-341.334c-5.888 0-11.2 2.368-15.082 6.25s-6.251 9.195-6.251 15.082v298.666c0 5.888 2.368 11.2 6.251 15.082s9.195 6.25 15.082 6.25h95.254l36.331-54.506c4.096-6.123 10.794-9.451 17.75-9.494h192c5.888 0 11.2-2.368 15.082-6.25s6.25-9.194 6.25-15.082z" />
<glyph unicode="&#xe96d;" glyph-name="folder-minus" d="M490.666 106.666v234.666c0 17.664-7.19 33.707-18.752 45.248s-27.584 18.752-45.248 18.752h-180.587l-36.331 54.507c-3.882 5.76-10.368 9.493-17.75 9.493h-106.666c-17.664 0-33.706-7.19-45.248-18.752s-18.752-27.584-18.752-45.248v-298.666c0-17.664 7.189-33.707 18.752-45.248s27.584-18.752 45.248-18.752h341.334c17.664 0 33.707 7.19 45.248 18.752s18.752 27.584 18.752 45.248zM448 106.666c0-5.888-2.368-11.2-6.25-15.082s-9.195-6.25-15.082-6.25h-341.334c-5.888 0-11.2 2.368-15.082 6.25s-6.251 9.195-6.251 15.082v298.666c0 5.888 2.368 11.2 6.251 15.082s9.195 6.25 15.082 6.25h95.254l36.331-54.506c4.096-6.123 10.794-9.451 17.75-9.494h192c5.888 0 11.2-2.368 15.082-6.25s6.25-9.194 6.25-15.082zM192 192h128c11.776 0 21.334 9.558 21.334 21.334s-9.558 21.334-21.334 21.334h-128c-11.776 0-21.334-9.558-21.334-21.334s9.558-21.334 21.334-21.334z" />
<glyph unicode="&#xe96e;" glyph-name="folder-plus" d="M490.666 106.666v234.666c0 17.664-7.19 33.707-18.752 45.248s-27.584 18.752-45.248 18.752h-180.587l-36.331 54.507c-3.882 5.76-10.368 9.493-17.75 9.493h-106.666c-17.664 0-33.706-7.19-45.248-18.752s-18.752-27.584-18.752-45.248v-298.666c0-17.664 7.189-33.707 18.752-45.248s27.584-18.752 45.248-18.752h341.334c17.664 0 33.707 7.19 45.248 18.752s18.752 27.584 18.752 45.248zM448 106.666c0-5.888-2.368-11.2-6.25-15.082s-9.195-6.25-15.082-6.25h-341.334c-5.888 0-11.2 2.368-15.082 6.25s-6.251 9.195-6.251 15.082v298.666c0 5.888 2.368 11.2 6.251 15.082s9.195 6.25 15.082 6.25h95.254l36.331-54.506c4.096-6.123 10.794-9.451 17.75-9.494h192c5.888 0 11.2-2.368 15.082-6.25s6.25-9.194 6.25-15.082zM192 192h42.666v-42.666c0-11.776 9.558-21.334 21.334-21.334s21.334 9.558 21.334 21.334v42.666h42.666c11.776 0 21.334 9.558 21.334 21.334s-9.558 21.334-21.334 21.334h-42.666v42.666c0 11.776-9.558 21.334-21.334 21.334s-21.334-9.558-21.334-21.334v-42.666h-42.666c-11.776 0-21.334-9.558-21.334-21.334s9.558-21.334 21.334-21.334z" />
</font>
</defs>
</svg>
